Sublime – Sinsemilla 86-96




No Cover available

Artist: Sublime
Year: 1996
Genre: Ska
Notes: Discogs
Add. Notes:
Watch Songs on: YouTube
Cover incl.: Yes
Encoder: FLAC
Bitrate: ~700 kBit/s (44.1 kHz/16 Bit/s)
Log & Cue incl.: Yes
Size: 315,3 MB
Password: “slam” (without ” “)


All Downloads/Hosters are compatible

Download 1
KatFile.com
Turbobit.net
Rapidgator.net
FileFactory.com
Download 2
KatFile.com
Turbobit.net
Rapidgator.net
FileFactory.com

Tracklist:

1  - Intro/Fighting Blindly  
2  - Romeo  
3  - Ebin   
4  - New Realization  
5  - Roots Of Creation  
6  - Don't Push  
7  - Ball And Chain  
8  - Slowride  
9  - Had A DAT  
10  - Perfect World   
11  - Freestyle   
12  - Trenchtown Rock  
13  - Dub Medly 2  
14  - Minor Threat  
15  - What I Got (Demo)  
16  - Garbage Grove (Demo)  
17  - Foreman Freestyle  
18  - Saw Red (Acoustic)  
19  - Outro

EAC-Log, CUE-Sheed & NFO:

Click to open spoiler
Exact Audio Copy V0.99 prebeta 4 from 23. January 2008

EAC extraction logfile from 27. February 2010, 0:33

Sublime / Sinsemilla 86-96

Used drive : _NEC DVD_RW ND-3540A Adapter: 4 ID: 0

Read mode : Secure
Utilize accurate stream : Yes
Defeat audio cache : Yes
Make use of C2 pointers : No

Read offset correction : 48
Overread into Lead-In and Lead-Out : No
Fill up missing offset samples with silence : Yes
Delete leading and trailing silent blocks : No
Null samples used in CRC calculations : Yes
Used interface : Installed external ASPI interface
Gap handling : Appended to previous track

Used output format : User Defined Encoder
Selected bitrate : 192 kBit/s
Quality : High
Add ID3 tag : No
Command line compressor : C:\Program Files\Exact Audio Copy\Flac\flac.exe
Additional command line options : -V -8 -T “artist=%a” -T “title=%t” -T “album=%g” -T “date=%y” -T “tracknumber=%n” -T “genre=%m” %s

TOC of the extracted CD

Track | Start | Length | Start sector | End sector
———————————————————
1 | 0:00.00 | 4:27.42 | 0 | 20066
2 | 4:27.42 | 4:31.33 | 20067 | 40424
3 | 8:59.00 | 4:14.30 | 40425 | 59504
4 | 13:13.30 | 2:22.35 | 59505 | 70189
5 | 15:35.65 | 4:25.55 | 70190 | 90119
6 | 20:01.45 | 3:48.67 | 90120 | 107286
7 | 23:50.37 | 3:37.45 | 107287 | 123606
8 | 27:28.07 | 4:25.05 | 123607 | 143486
9 | 31:53.12 | 3:29.10 | 143487 | 159171
10 | 35:22.22 | 2:21.30 | 159172 | 169776
11 | 37:43.52 | 2:02.55 | 169777 | 178981
12 | 39:46.32 | 1:38.00 | 178982 | 186331
13 | 41:24.32 | 4:11.10 | 186332 | 205166
14 | 45:35.42 | 2:07.10 | 205167 | 214701
15 | 47:42.52 | 2:41.48 | 214702 | 226824
16 | 50:24.25 | 2:11.12 | 226825 | 236661
17 | 52:35.37 | 3:03.08 | 236662 | 250394
18 | 55:38.45 | 2:47.07 | 250395 | 262926
19 | 58:25.52 | 0:22.60 | 262927 | 264636

Track 1

Filename E:\Other\Upload\Sublime – Sinsemilla 86-96 [FLAC]\01 – Intro,Fighting Blindly.wav

Pre-gap length 0:00:02.00

Peak level 81.2 %
Track quality 100.0 %
Test CRC BB0ACB27
Copy CRC BB0ACB27
Cannot be verified as accurate (confidence 2) [E46EE695], AccurateRip returned [A795166B]
Copy OK

Track 2

Filename E:\Other\Upload\Sublime – Sinsemilla 86-96 [FLAC]\02 – Romeo.wav

Peak level 98.8 %
Track quality 100.0 %
Test CRC 81F6FF7B
Copy CRC 81F6FF7B
Cannot be verified as accurate (confidence 2) [A3975DF4], AccurateRip returned [B4C2A8C2]
Copy OK

Track 3

Filename E:\Other\Upload\Sublime – Sinsemilla 86-96 [FLAC]\03 – Ebin.wav

Peak level 85.8 %
Track quality 100.0 %
Test CRC 3C35B6A2
Copy CRC 3C35B6A2
Cannot be verified as accurate (confidence 2) [BB5790F0], AccurateRip returned [DCAED498]
Copy OK

Track 4

Filename E:\Other\Upload\Sublime – Sinsemilla 86-96 [FLAC]\04 – New Realization.wav

Pre-gap length 0:00:01.37

Peak level 90.2 %
Track quality 99.9 %
Test CRC 2F98BC1D
Copy CRC 2F98BC1D
Cannot be verified as accurate (confidence 2) [E177FB39], AccurateRip returned [114B6D19]
Copy OK

Track 5

Filename E:\Other\Upload\Sublime – Sinsemilla 86-96 [FLAC]\05 – Roots of Creation.wav

Peak level 92.0 %
Track quality 100.0 %
Test CRC DD1108C9
Copy CRC DD1108C9
Cannot be verified as accurate (confidence 2) [4CE1015B], AccurateRip returned [197D0C2F]
Copy OK

Track 6

Filename E:\Other\Upload\Sublime – Sinsemilla 86-96 [FLAC]\06 – Don’t Push (Original).wav

Peak level 94.4 %
Track quality 100.0 %
Test CRC C09661DC
Copy CRC C09661DC
Cannot be verified as accurate (confidence 2) [C9194E3C], AccurateRip returned [14A68C5E]
Copy OK

Track 7

Filename E:\Other\Upload\Sublime – Sinsemilla 86-96 [FLAC]\07 – Ball & Chain.wav

Peak level 98.8 %
Track quality 100.0 %
Test CRC D20169D1
Copy CRC D20169D1
Cannot be verified as accurate (confidence 2) [87E7DD17], AccurateRip returned [97866FFD]
Copy OK

Track 8

Filename E:\Other\Upload\Sublime – Sinsemilla 86-96 [FLAC]\08 – Slow Ride.wav

Peak level 98.8 %
Track quality 100.0 %
Test CRC 20B3D3E8
Copy CRC 20B3D3E8
Cannot be verified as accurate (confidence 2) [A73105FB], AccurateRip returned [4004960F]
Copy OK

Track 9

Filename E:\Other\Upload\Sublime – Sinsemilla 86-96 [FLAC]\09 – Had A DAT.wav

Pre-gap length 0:00:01.00

Peak level 84.1 %
Track quality 100.0 %
Test CRC 37261ACA
Copy CRC 37261ACA
Cannot be verified as accurate (confidence 2) [274C8386], AccurateRip returned [BC1B88A0]
Copy OK

Track 10

Filename E:\Other\Upload\Sublime – Sinsemilla 86-96 [FLAC]\10 – Perfect World.wav

Peak level 89.1 %
Track quality 100.0 %
Test CRC F293EF78
Copy CRC F293EF78
Cannot be verified as accurate (confidence 2) [0508A3CA], AccurateRip returned [D33D3BFC]
Copy OK

Track 11

Filename E:\Other\Upload\Sublime – Sinsemilla 86-96 [FLAC]\11 – Freestyle (Johnny Too Bad).wav

Peak level 79.4 %
Track quality 100.0 %
Test CRC 8AE10ACE
Copy CRC 8AE10ACE
Cannot be verified as accurate (confidence 2) [B6BEA38E], AccurateRip returned [FDB041B2]
Copy OK

Track 12

Filename E:\Other\Upload\Sublime – Sinsemilla 86-96 [FLAC]\12 – Trenchtown Rock.wav

Pre-gap length 0:00:01.46

Peak level 55.3 %
Track quality 100.0 %
Test CRC A17379F8
Copy CRC A17379F8
Cannot be verified as accurate (confidence 2) [5E6995A5], AccurateRip returned [F5FE8D73]
Copy OK

Track 13

Filename E:\Other\Upload\Sublime – Sinsemilla 86-96 [FLAC]\13 – Dub Medley II (Babylon Stone).wav

Peak level 98.8 %
Track quality 100.0 %
Test CRC 922C0114
Copy CRC 922C0114
Cannot be verified as accurate (confidence 2) [78BB0428], AccurateRip returned [7CC0B4FA]
Copy OK

Track 14

Filename E:\Other\Upload\Sublime – Sinsemilla 86-96 [FLAC]\14 – Minor Threat.wav

Pre-gap length 0:00:01.60

Peak level 98.8 %
Track quality 100.0 %
Test CRC EB8C56A8
Copy CRC EB8C56A8
Cannot be verified as accurate (confidence 2) [76CC7966], AccurateRip returned [999131C4]
Copy OK

Track 15

Filename E:\Other\Upload\Sublime – Sinsemilla 86-96 [FLAC]\15 – What I Got (Demo).wav

Pre-gap length 0:00:01.60

Peak level 89.1 %
Track quality 100.0 %
Test CRC E8823E71
Copy CRC E8823E71
Cannot be verified as accurate (confidence 2) [F29A45EA], AccurateRip returned [186C4D3A]
Copy OK

Track 16

Filename E:\Other\Upload\Sublime – Sinsemilla 86-96 [FLAC]\16 – Garbage Grove.wav

Peak level 70.7 %
Track quality 99.9 %
Test CRC 13A4F59C
Copy CRC 13A4F59C
Cannot be verified as accurate (confidence 2) [6ED12A4C], AccurateRip returned [FEBD71F0]
Copy OK

Track 17

Filename E:\Other\Upload\Sublime – Sinsemilla 86-96 [FLAC]\17 – Foreman Freestyle.wav

Pre-gap length 0:00:01.06

Peak level 89.1 %
Track quality 100.0 %
Test CRC 9A03DE98
Copy CRC 9A03DE98
Cannot be verified as accurate (confidence 2) [C1BAEE4A], AccurateRip returned [9494FE6E]
Copy OK

Track 18

Filename E:\Other\Upload\Sublime – Sinsemilla 86-96 [FLAC]\18 – Saw Red (Acoustic).wav

Peak level 89.1 %
Track quality 100.0 %
Test CRC DDED9526
Copy CRC DDED9526
Cannot be verified as accurate (confidence 2) [3D0772D7], AccurateRip returned [8A1ABC03]
Copy OK

Track 19

Filename E:\Other\Upload\Sublime – Sinsemilla 86-96 [FLAC]\19 – Outro.wav

Pre-gap length 0:00:01.20

Peak level 58.4 %
Track quality 100.0 %
Test CRC A76B1331
Copy CRC A76B1331
Cannot be verified as accurate (confidence 2) [0056160D], AccurateRip returned [30712389]
Copy OK

No tracks could be verified as accurate
You may have a different pressing from the one(s) in the database

No errors occurred

End of status report

REM GENRE Alternative
REM DATE 1996
REM DISCID 0E0DC813
REM COMMENT “ExactAudioCopy v0.99pb4”
PERFORMER “Sublime”
TITLE “Sinsemilla 86-96”
FILE “01 – Intro,Fighting Blindly.wav” WAVE
TRACK 01 AUDIO
TITLE “Intro/Fighting Blindly”
PERFORMER “Sublime”
INDEX 01 00:00:00
FILE “02 – Romeo.wav” WAVE
TRACK 02 AUDIO
TITLE “Romeo”
PERFORMER “Sublime”
INDEX 01 00:00:00
FILE “03 – Ebin.wav” WAVE
TRACK 03 AUDIO
TITLE “Ebin”
PERFORMER “Sublime”
INDEX 01 00:00:00
TRACK 04 AUDIO
TITLE “New Realization”
PERFORMER “Sublime”
INDEX 00 04:13:02
FILE “04 – New Realization.wav” WAVE
INDEX 01 00:00:00
FILE “05 – Roots of Creation.wav” WAVE
TRACK 05 AUDIO
TITLE “Roots of Creation”
PERFORMER “Sublime”
INDEX 01 00:00:00
FILE “06 – Don’t Push (Original).wav” WAVE
TRACK 06 AUDIO
TITLE “Don’t Push (Original)”
PERFORMER “Sublime”
INDEX 01 00:00:00
FILE “07 – Ball & Chain.wav” WAVE
TRACK 07 AUDIO
TITLE “Ball & Chain”
PERFORMER “Sublime”
INDEX 01 00:00:00
FILE “08 – Slow Ride.wav” WAVE
TRACK 08 AUDIO
TITLE “Slow Ride”
PERFORMER “Sublime”
INDEX 01 00:00:00
TRACK 09 AUDIO
TITLE “Had A DAT”
PERFORMER “Sublime”
INDEX 00 04:24:05
FILE “09 – Had A DAT.wav” WAVE
INDEX 01 00:00:00
FILE “10 – Perfect World.wav” WAVE
TRACK 10 AUDIO
TITLE “Perfect World”
PERFORMER “Sublime”
INDEX 01 00:00:00
FILE “11 – Freestyle (Johnny Too Bad).wav” WAVE
TRACK 11 AUDIO
TITLE “Freestyle (Johnny Too Bad)”
PERFORMER “Sublime”
INDEX 01 00:00:00
TRACK 12 AUDIO
TITLE “Trenchtown Rock”
PERFORMER “Sublime”
INDEX 00 02:01:20
FILE “12 – Trenchtown Rock.wav” WAVE
INDEX 01 00:00:00
FILE “13 – Dub Medley II (Babylon Stone).wav” WAVE
TRACK 13 AUDIO
TITLE “Dub Medley II (Babylon Stone)”
PERFORMER “Sublime”
INDEX 01 00:00:00
TRACK 14 AUDIO
TITLE “Minor Threat”
PERFORMER “Sublime”
INDEX 00 04:09:40
FILE “14 – Minor Threat.wav” WAVE
INDEX 01 00:00:00
TRACK 15 AUDIO
TITLE “What I Got (Demo)”
PERFORMER “Sublime”
INDEX 00 02:05:40
FILE “15 – What I Got (Demo).wav” WAVE
INDEX 01 00:00:00
FILE “16 – Garbage Grove.wav” WAVE
TRACK 16 AUDIO
TITLE “Garbage Grove”
PERFORMER “Sublime”
INDEX 01 00:00:00
TRACK 17 AUDIO
TITLE “Foreman Freestyle”
PERFORMER “Sublime”
INDEX 00 02:10:07
FILE “17 – Foreman Freestyle.wav” WAVE
INDEX 01 00:00:00
FILE “18 – Saw Red (Acoustic).wav” WAVE
TRACK 18 AUDIO
TITLE “Saw Red (Acoustic)”
PERFORMER “Sublime”
INDEX 01 00:00:00
TRACK 19 AUDIO
TITLE “Outro”
PERFORMER “Sublime”
INDEX 00 02:45:67
FILE “19 – Outro.wav” WAVE
INDEX 01 00:00:00


Leave a Reply

Your email address will not be published. Required fields are marked *

This site uses Akismet to reduce spam. Learn how your comment data is processed.