Sublime – Shootin’ Up In Beantown




No Cover available

Artist: Sublime
Year: 1996
Genre: Ska
Notes: Discogs
Add. Notes:
Watch Songs on: YouTube
Cover incl.: Yes
Encoder: FLAC
Bitrate: ~1000 kBit/s (44.1 kHz/16 Bit/s)
Log & Cue incl.: Yes
Size: 325,5 MB
Password: “slam” (without ” “)


All Downloads/Hosters are compatible

Download 1
KatFile.com
Turbobit.net
Rapidgator.net
FileFactory.com
Download 2
KatFile.com
Turbobit.net
Rapidgator.net
FileFactory.com

Tracklist:

 - Saw Red
 - Poolshark
 - Same in the End
 - Smoke Two Joints
 - Paddle Out
 - Falling Idols
 - Don't Push
 - Garden Grove
 - New Thrash
 - Seed
 - Badfish
 - Hope
 - Work That We Do
 - 5446 (That's My Number)
 - House of Suffering
 - All You Need
 - STP
 - Minor Threat

EAC-Log, CUE-Sheed & NFO:

Click to open spoiler
Exact Audio Copy V0.99 prebeta 3 from 28. July 2007

EAC extraction logfile from 13. June 2010, 14:59

Sublime / Shootin’ Up In Beantown

Used drive : PLEXTOR DVDR PX-740A Adapter: 1 ID: 0

Read mode : Secure
Utilize accurate stream : Yes
Defeat audio cache : Yes
Make use of C2 pointers : No

Read offset correction : 618
Overread into Lead-In and Lead-Out : No
Fill up missing offset samples with silence : Yes
Delete leading and trailing silent blocks : No
Null samples used in CRC calculations : Yes
Used interface : Installed external ASPI interface
Gap handling : Appended to previous track

Used output format : Internal WAV Routines
Sample format : 44.100 Hz; 16 Bit; Stereo

TOC of the extracted CD

Track | Start | Length | Start sector | End sector
———————————————————
1 | 0:00.00 | 2:26.65 | 0 | 11014
2 | 2:26.65 | 2:06.09 | 11015 | 20473
3 | 4:32.74 | 2:10.30 | 20474 | 30253
4 | 6:43.29 | 2:16.37 | 30254 | 40490
5 | 8:59.66 | 1:34.57 | 40491 | 47597
6 | 10:34.48 | 3:22.59 | 47598 | 62806
7 | 13:57.32 | 2:34.67 | 62807 | 74423
8 | 16:32.24 | 6:39.21 | 74424 | 104369
9 | 23:11.45 | 2:15.45 | 104370 | 114539
10 | 25:27.15 | 4:22.20 | 114540 | 134209
11 | 29:49.35 | 1:42.27 | 134210 | 141886
12 | 31:31.62 | 3:34.39 | 141887 | 157975
13 | 35:06.26 | 5:16.47 | 157976 | 181722
14 | 40:22.73 | 2:50.22 | 181723 | 194494
15 | 43:13.20 | 1:21.43 | 194495 | 200612
16 | 44:34.63 | 1:47.21 | 200613 | 208658
17 | 46:22.09 | 1:49.11 | 208659 | 216844

Track 1

Filename D:\Non-System\Music\Ripping\Sublime – Shootin’ Up In Beantown\01 Saw Red.wav

Pre-gap length 0:00:02.00

Peak level 100.0 %
Track quality 100.0 %
Test CRC 75F1FDEE
Copy CRC 75F1FDEE
Copy OK

Track 2

Filename D:\Non-System\Music\Ripping\Sublime – Shootin’ Up In Beantown\02 Pool Shark.wav

Peak level 100.0 %
Track quality 100.0 %
Test CRC AC7DDF95
Copy CRC AC7DDF95
Copy OK

Track 3

Filename D:\Non-System\Music\Ripping\Sublime – Shootin’ Up In Beantown\03 Same In The End.wav

Peak level 100.0 %
Track quality 100.0 %
Test CRC F41D01A9
Copy CRC F41D01A9
Copy OK

Track 4

Filename D:\Non-System\Music\Ripping\Sublime – Shootin’ Up In Beantown\04 Smoke Two Joints.wav

Peak level 100.0 %
Track quality 99.9 %
Test CRC 869168CF
Copy CRC 869168CF
Copy OK

Track 5

Filename D:\Non-System\Music\Ripping\Sublime – Shootin’ Up In Beantown\05 Paddle Out.wav

Peak level 100.0 %
Track quality 100.0 %
Test CRC DD296345
Copy CRC DD296345
Copy OK

Track 6

Filename D:\Non-System\Music\Ripping\Sublime – Shootin’ Up In Beantown\06 Falling Idols.wav

Peak level 100.0 %
Track quality 100.0 %
Test CRC 58350246
Copy CRC 58350246
Copy OK

Track 7

Filename D:\Non-System\Music\Ripping\Sublime – Shootin’ Up In Beantown\07 Don’t Push.wav

Peak level 100.0 %
Track quality 100.0 %
Test CRC B54F6D44
Copy CRC B54F6D44
Copy OK

Track 8

Filename D:\Non-System\Music\Ripping\Sublime – Shootin’ Up In Beantown\08 Garden Grove , Right Back , New Thrash.wav

Peak level 100.0 %
Track quality 100.0 %
Test CRC 608838DA
Copy CRC 608838DA
Copy OK

Track 9

Filename D:\Non-System\Music\Ripping\Sublime – Shootin’ Up In Beantown\09 Seed.wav

Peak level 100.0 %
Track quality 100.0 %
Test CRC 15B56C2D
Copy CRC 15B56C2D
Copy OK

Track 10

Filename D:\Non-System\Music\Ripping\Sublime – Shootin’ Up In Beantown\10 Badfish.wav

Peak level 100.0 %
Track quality 100.0 %
Test CRC C3845975
Copy CRC C3845975
Copy OK

Track 11

Filename D:\Non-System\Music\Ripping\Sublime – Shootin’ Up In Beantown\11 Hope.wav

Peak level 100.0 %
Track quality 100.0 %
Test CRC BAAB4F78
Copy CRC BAAB4F78
Copy OK

Track 12

Filename D:\Non-System\Music\Ripping\Sublime – Shootin’ Up In Beantown\12 Work That We Do.wav

Peak level 100.0 %
Track quality 99.9 %
Test CRC 9DD5E53A
Copy CRC 9DD5E53A
Copy OK

Track 13

Filename D:\Non-System\Music\Ripping\Sublime – Shootin’ Up In Beantown\13 5446 , House Of Suffering.wav

Peak level 100.0 %
Track quality 100.0 %
Test CRC 91C9B9E9
Copy CRC 91C9B9E9
Copy OK

Track 14

Filename D:\Non-System\Music\Ripping\Sublime – Shootin’ Up In Beantown\14 All You Need.wav

Peak level 100.0 %
Track quality 100.0 %
Test CRC ED2B5241
Copy CRC ED2B5241
Copy OK

Track 15

Filename D:\Non-System\Music\Ripping\Sublime – Shootin’ Up In Beantown\15 STP #1.wav

Peak level 100.0 %
Track quality 100.0 %
Test CRC B37BE338
Copy CRC B37BE338
Copy OK

Track 16

Filename D:\Non-System\Music\Ripping\Sublime – Shootin’ Up In Beantown\16 STP #2.wav

Peak level 100.0 %
Track quality 100.0 %
Test CRC 89B0A1C2
Copy CRC 89B0A1C2
Copy OK

Track 17

Filename D:\Non-System\Music\Ripping\Sublime – Shootin’ Up In Beantown\17 Minor Threat.wav

Peak level 100.0 %
Track quality 100.0 %
Test CRC 16A15B75
Copy CRC 16A15B75
Copy OK

No errors occurred

End of status report

REM GENRE Rock
REM DATE 1996
REM DISCID 070B4B11
REM COMMENT “ExactAudioCopy v0.99pb3”
PERFORMER “Sublime”
TITLE “Shootin’ Up In Beantown”
FILE “01 Saw Red.wav” WAVE
TRACK 01 AUDIO
TITLE “Saw Red”
PERFORMER “Sublime”
FLAGS DCP
INDEX 01 00:00:00
FILE “02 Pool Shark.wav” WAVE
TRACK 02 AUDIO
TITLE “Pool Shark”
PERFORMER “Sublime”
FLAGS DCP
INDEX 01 00:00:00
FILE “03 Same In The End.wav” WAVE
TRACK 03 AUDIO
TITLE “Same In The End”
PERFORMER “Sublime”
FLAGS DCP
INDEX 01 00:00:00
FILE “04 Smoke Two Joints.wav” WAVE
TRACK 04 AUDIO
TITLE “Smoke Two Joints”
PERFORMER “Sublime”
FLAGS DCP
INDEX 01 00:00:00
FILE “05 Paddle Out.wav” WAVE
TRACK 05 AUDIO
TITLE “Paddle Out”
PERFORMER “Sublime”
FLAGS DCP
INDEX 01 00:00:00
FILE “06 Falling Idols.wav” WAVE
TRACK 06 AUDIO
TITLE “Falling Idols”
PERFORMER “Sublime”
FLAGS DCP
INDEX 01 00:00:00
FILE “07 Don’t Push.wav” WAVE
TRACK 07 AUDIO
TITLE “Don’t Push”
PERFORMER “Sublime”
FLAGS DCP
INDEX 01 00:00:00
FILE “08 Garden Grove , Right Back , New Thrash.wav” WAVE
TRACK 08 AUDIO
TITLE “Garden Grove / Right Back / New Thrash”
PERFORMER “Sublime”
FLAGS DCP
INDEX 01 00:00:00
FILE “09 Seed.wav” WAVE
TRACK 09 AUDIO
TITLE “Seed”
PERFORMER “Sublime”
FLAGS DCP
INDEX 01 00:00:00
FILE “10 Badfish.wav” WAVE
TRACK 10 AUDIO
TITLE “Badfish”
PERFORMER “Sublime”
FLAGS DCP
INDEX 01 00:00:00
FILE “11 Hope.wav” WAVE
TRACK 11 AUDIO
TITLE “Hope”
PERFORMER “Sublime”
FLAGS DCP
INDEX 01 00:00:00
FILE “12 Work That We Do.wav” WAVE
TRACK 12 AUDIO
TITLE “Work That We Do”
PERFORMER “Sublime”
FLAGS DCP
INDEX 01 00:00:00
FILE “13 5446 , House Of Suffering.wav” WAVE
TRACK 13 AUDIO
TITLE “5446 / House Of Suffering”
PERFORMER “Sublime”
FLAGS DCP
INDEX 01 00:00:00
FILE “14 All You Need.wav” WAVE
TRACK 14 AUDIO
TITLE “All You Need”
PERFORMER “Sublime”
FLAGS DCP
INDEX 01 00:00:00
FILE “15 STP #1.wav” WAVE
TRACK 15 AUDIO
TITLE “STP #1”
PERFORMER “Sublime”
FLAGS DCP
INDEX 01 00:00:00
FILE “16 STP #2.wav” WAVE
TRACK 16 AUDIO
TITLE “STP #2”
PERFORMER “Sublime”
FLAGS DCP
INDEX 01 00:00:00
FILE “17 Minor Threat.wav” WAVE
TRACK 17 AUDIO
TITLE “Minor Threat”
PERFORMER “Sublime”
FLAGS DCP
INDEX 01 00:00:00


Leave a Reply

Your email address will not be published. Required fields are marked *

This site uses Akismet to reduce spam. Learn how your comment data is processed.