Sublime – Second Hand Smoke




No Cover available

Artist: Sublime
Year: 1997
Genre: Ska
Notes: Discogs
Add. Notes:
Watch Songs on: YouTube
Cover incl.: Yes
Encoder: FLAC
Bitrate: ~800 kBit/s (44.1 kHz/16 Bit/s)
Log & Cue incl.: Yes
Size: 411,56 MB
Password: “slam” (without ” “)


All Downloads/Hosters are compatible

Download 1
KatFile.com
Turbobit.net
Rapidgator.net
FileFactory.com
Download 2
KatFile.com
Turbobit.net
Rapidgator.net
FileFactory.com

Tracklist:

1 - Doin' Time (Uptown Dub) - 3:47
2 - Get Out! (Remix) - 3:40
3 - Romeo - 4:31
4 - New Realization - 2:22
5 - Don't Push - 3:54
6 - Slow Ride - 4:23
7 - Chick On My Tip - 3:16
8 - Had A Dat - 3:32
9 - Trenchtown Rock - 1:42
10 - Badfish - 3:06
11 - Drunk Drivin' - 0:18
12 - Saw Red - 1:58
13 - Garbage Grove - 2:12
14 - April 29th 1992 (Leary) - 3:47
15 - Superstar Punani - 3:17
16 - Legal Dub - 3:11
17 - What's Really Goin' Wrong - 2:35
18 - Doin' Time (Eerie Splendor Remix) - 5:16
19 - Thanx Dub - 6:29

EAC-Log, CUE-Sheed & NFO:

Click to open spoiler
EAC extraction logfile from 27. December 2006, 2:56 for CD
Sublime / Second-Hand Smoke

Used drive : HL-DT-STCD-RW GCE-8483B Adapter: 1 ID: 0
Read mode : Secure with NO C2, accurate stream, disable cache
Read offset correction : 6
Overread into Lead-In and Lead-Out : No

Used output format : C:\Program Files\Exact Audio Copy\flac.exe (User Defined Encoder)
192 kBit/s
Additional command line options : -V -5 -T “artist=%a” -T “title=%t” -T “album=%g” -T “date=%y” -T “tracknumber=%n” -T “genre=%m” %s

Other options :
Fill up missing offset samples with silence : Yes
Delete leading and trailing silent blocks : No
Installed external ASPI interface

Track 1
Filename C:\Documents and Settings\Owner\My Documents\My Music\MP3\Sublime – Second Hand Smoke\01 – Sublime – Doin’ Time (Uptown Dub).wav

Pre-gap length 0:00:02.00

Peak level 99.8 %
Track quality 100.0 %
Test CRC 6C5E3DBB
Copy CRC 6C5E3DBB
Copy OK

Track 2
Filename C:\Documents and Settings\Owner\My Documents\My Music\MP3\Sublime – Second Hand Smoke\02 – Sublime – Get Out!.wav

Peak level 99.8 %
Track quality 99.9 %
Test CRC B98E0E79
Copy CRC B98E0E79
Copy OK

Track 3
Filename C:\Documents and Settings\Owner\My Documents\My Music\MP3\Sublime – Second Hand Smoke\03 – Sublime – Romeo.wav

Peak level 99.8 %
Track quality 100.0 %
Test CRC C7D28108
Copy CRC C7D28108
Copy OK

Track 4
Filename C:\Documents and Settings\Owner\My Documents\My Music\MP3\Sublime – Second Hand Smoke\04 – Sublime – New Realization.wav

Pre-gap length 0:00:00.60

Peak level 99.8 %
Track quality 100.0 %
Test CRC E0989982
Copy CRC E0989982
Copy OK

Track 5
Filename C:\Documents and Settings\Owner\My Documents\My Music\MP3\Sublime – Second Hand Smoke\05 – Sublime – Don’t Push.wav

Pre-gap length 0:00:00.36

Peak level 99.8 %
Track quality 100.0 %
Test CRC EB1E0FB5
Copy CRC EB1E0FB5
Copy OK

Track 6
Filename C:\Documents and Settings\Owner\My Documents\My Music\MP3\Sublime – Second Hand Smoke\06 – Sublime – Slow Ride.wav

Peak level 99.8 %
Track quality 100.0 %
Test CRC 1C3E015C
Copy CRC 1C3E015C
Copy OK

Track 7
Filename C:\Documents and Settings\Owner\My Documents\My Music\MP3\Sublime – Second Hand Smoke\07 – Sublime – Chick On My Tip.wav

Pre-gap length 0:00:00.18

Peak level 99.8 %
Track quality 99.9 %
Test CRC 041E3387
Copy CRC 041E3387
Copy OK

Track 8
Filename C:\Documents and Settings\Owner\My Documents\My Music\MP3\Sublime – Second Hand Smoke\08 – Sublime – Had A Dat.wav

Pre-gap length 0:00:00.80

Peak level 99.8 %
Track quality 100.0 %
Test CRC ED27B9A3
Copy CRC ED27B9A3
Copy OK

Track 9
Filename C:\Documents and Settings\Owner\My Documents\My Music\MP3\Sublime – Second Hand Smoke\09 – Sublime – Trenchtown Rock.wav

Pre-gap length 0:00:00.84

Peak level 99.8 %
Track quality 100.0 %
Test CRC 3F55738B
Copy CRC 3F55738B
Copy OK

Track 10
Filename C:\Documents and Settings\Owner\My Documents\My Music\MP3\Sublime – Second Hand Smoke\10 – Sublime – Badfish.wav

Peak level 99.8 %
Track quality 100.0 %
Test CRC 3A9BA2C9
Copy CRC 3A9BA2C9
Copy OK

Track 11
Filename C:\Documents and Settings\Owner\My Documents\My Music\MP3\Sublime – Second Hand Smoke\11 – Sublime – Drunk Drivin’.wav

Peak level 99.8 %
Track quality 100.0 %
Test CRC D5A350CA
Copy CRC D5A350CA
Copy OK

Track 12
Filename C:\Documents and Settings\Owner\My Documents\My Music\MP3\Sublime – Second Hand Smoke\12 – Sublime – Saw Red.wav

Peak level 99.8 %
Track quality 100.0 %
Test CRC 260DE8D0
Copy CRC 260DE8D0
Copy OK

Track 13
Filename C:\Documents and Settings\Owner\My Documents\My Music\MP3\Sublime – Second Hand Smoke\13 – Sublime – Garbage Grove.wav

Pre-gap length 0:00:00.33

Peak level 99.8 %
Track quality 99.9 %
Test CRC FA573F70
Copy CRC FA573F70
Copy OK

Track 14
Filename C:\Documents and Settings\Owner\My Documents\My Music\MP3\Sublime – Second Hand Smoke\14 – Sublime – April 29th 1992.wav

Pre-gap length 0:00:01.82

Peak level 99.8 %
Track quality 99.9 %
Test CRC CAF40D73
Copy CRC CAF40D73
Copy OK

Track 15
Filename C:\Documents and Settings\Owner\My Documents\My Music\MP3\Sublime – Second Hand Smoke\15 – Sublime – Superstar Punani.wav

Pre-gap length 0:00:00.40

Peak level 99.8 %
Track quality 100.0 %
Test CRC 0416A527
Copy CRC 0416A527
Copy OK

Track 16
Filename C:\Documents and Settings\Owner\My Documents\My Music\MP3\Sublime – Second Hand Smoke\16 – Sublime – Legal Dub.wav

Pre-gap length 0:00:00.70

Peak level 99.8 %
Track quality 100.0 %
Test CRC 56B06245
Copy CRC 56B06245
Copy OK

Track 17
Filename C:\Documents and Settings\Owner\My Documents\My Music\MP3\Sublime – Second Hand Smoke\17 – Sublime – What’s Really Goin’ Wrong.wav

Pre-gap length 0:00:00.13

Peak level 99.8 %
Track quality 100.0 %
Test CRC BCEAD390
Copy CRC BCEAD390
Copy OK

Track 18
Filename C:\Documents and Settings\Owner\My Documents\My Music\MP3\Sublime – Second Hand Smoke\18 – Sublime – Doin’ Time (Eeerie Splendor Remix).wav

Pre-gap length 0:00:00.24

Peak level 99.8 %
Track quality 100.0 %
Test CRC 5811DFAC
Copy CRC 5811DFAC
Copy OK

Track 19
Filename C:\Documents and Settings\Owner\My Documents\My Music\MP3\Sublime – Second Hand Smoke\19 – Sublime – Thanx Dub.wav

Pre-gap length 0:00:00.86

Peak level 99.8 %
Track quality 99.9 %
Test CRC C6A45351
Copy CRC C6A45351
Copy OK

No errors occured

End of status report

REM GENRE Alternative
REM DATE 1997
REM DISCID 140EDC13
REM COMMENT “ExactAudioCopy v0.95b3”
PERFORMER “Sublime”
TITLE “Second-Hand Smoke”
FILE “01 – Sublime – Doin’ Time (Uptown Dub).wav” WAVE
TRACK 01 AUDIO
TITLE “Doin’ Time (Uptown Dub)”
PERFORMER “Sublime”
INDEX 01 00:00:00
FILE “02 – Sublime – Get Out!.wav” WAVE
TRACK 02 AUDIO
TITLE “Get Out!”
PERFORMER “Sublime”
INDEX 01 00:00:00
FILE “03 – Sublime – Romeo.wav” WAVE
TRACK 03 AUDIO
TITLE “Romeo”
PERFORMER “Sublime”
INDEX 01 00:00:00
TRACK 04 AUDIO
TITLE “New Realization”
PERFORMER “Sublime”
INDEX 00 04:30:65
FILE “04 – Sublime – New Realization.wav” WAVE
INDEX 01 00:00:00
TRACK 05 AUDIO
TITLE “Don’t Push”
PERFORMER “Sublime”
INDEX 00 02:21:73
FILE “05 – Sublime – Don’t Push.wav” WAVE
INDEX 01 00:00:00
FILE “06 – Sublime – Slow Ride.wav” WAVE
TRACK 06 AUDIO
TITLE “Slow Ride”
PERFORMER “Sublime”
INDEX 01 00:00:00
TRACK 07 AUDIO
TITLE “Chick On My Tip”
PERFORMER “Sublime”
INDEX 00 04:22:55
FILE “07 – Sublime – Chick On My Tip.wav” WAVE
INDEX 01 00:00:00
TRACK 08 AUDIO
TITLE “Had A Dat”
PERFORMER “Sublime”
INDEX 00 03:15:33
FILE “08 – Sublime – Had A Dat.wav” WAVE
INDEX 01 00:00:00
TRACK 09 AUDIO
TITLE “Trenchtown Rock”
PERFORMER “Sublime”
INDEX 00 03:31:15
FILE “09 – Sublime – Trenchtown Rock.wav” WAVE
INDEX 01 00:00:00
FILE “10 – Sublime – Badfish.wav” WAVE
TRACK 10 AUDIO
TITLE “Badfish”
PERFORMER “Sublime”
INDEX 01 00:00:00
FILE “11 – Sublime – Drunk Drivin’.wav” WAVE
TRACK 11 AUDIO
TITLE “Drunk Drivin'”
PERFORMER “Sublime”
INDEX 01 00:00:00
FILE “12 – Sublime – Saw Red.wav” WAVE
TRACK 12 AUDIO
TITLE “Saw Red”
PERFORMER “Sublime”
INDEX 01 00:00:00
TRACK 13 AUDIO
TITLE “Garbage Grove”
PERFORMER “Sublime”
INDEX 00 01:58:13
FILE “13 – Sublime – Garbage Grove.wav” WAVE
INDEX 01 00:00:00
TRACK 14 AUDIO
TITLE “April 29th 1992”
PERFORMER “Sublime”
INDEX 00 02:10:50
FILE “14 – Sublime – April 29th 1992.wav” WAVE
INDEX 01 00:00:00
TRACK 15 AUDIO
TITLE “Superstar Punani”
PERFORMER “Sublime”
INDEX 00 03:47:05
FILE “15 – Sublime – Superstar Punani.wav” WAVE
INDEX 01 00:00:00
TRACK 16 AUDIO
TITLE “Legal Dub”
PERFORMER “Sublime”
INDEX 00 03:17:05
FILE “16 – Sublime – Legal Dub.wav” WAVE
INDEX 01 00:00:00
TRACK 17 AUDIO
TITLE “What’s Really Goin’ Wrong”
PERFORMER “Sublime”
INDEX 00 03:11:05
FILE “17 – Sublime – What’s Really Goin’ Wrong.wav” WAVE
INDEX 01 00:00:00
TRACK 18 AUDIO
TITLE “Doin’ Time (Eeerie Splendor Remix)”
PERFORMER “Sublime”
INDEX 00 02:35:57
FILE “18 – Sublime – Doin’ Time (Eeerie Splendor Remix).wav” WAVE
INDEX 01 00:00:00
TRACK 19 AUDIO
TITLE “Thanx Dub”
PERFORMER “Sublime”
INDEX 00 05:15:62
FILE “19 – Sublime – Thanx Dub.wav” WAVE
INDEX 01 00:00:00


Leave a Reply

Your email address will not be published. Required fields are marked *

This site uses Akismet to reduce spam. Learn how your comment data is processed.