Sublime – Robbin’ The Hood




No Cover available

Artist: Sublime
Year: 1994
Genre: Ska
Notes: Discogs
Add. Notes:
Watch Songs on: YouTube
Cover incl.: Yes
Encoder: FLAC
Bitrate: ~900 kBit/s (44.1 kHz/16 Bit/s)
Log & Cue incl.: Yes
Size: 331,5 MB
Password: “slam” (without ” “)


All Downloads/Hosters are compatible

Download 1
KatFile.com
Turbobit.net
Rapidgator.net
FileFactory.com
Download 2
KatFile.com
Turbobit.net
Rapidgator.net
FileFactory.com

Tracklist:

1 - Waiting For Bud - 1:02
2 - Steady B Loop Dub - 1:23
3 - Raleigh Soliloquy Pt. I - 1:46
4 - Pool Shark (Original) - 0:57
5 - Steppin' Razor - 2:24
6 - Greatest-Hits - 2:53
7 - Free Loop Dub - 3:08
8 - Q-Ball - 0:43
9 - Saw Red - 1:57
10 - Work That We Do - 2:34
11 - Lincoln Highway Dub - 2:21
12 - Pool Shark (Acoustic) - 1:25
13 - Cisco Kid - 4:38
14 - Raleigh Soliloquy Pt. II - 3:39
15 - STP - 2:57
16 - Boss D.J. - 2:51
17 - I Don't Care Too Much For Reggae Dub - 5:20
18 - Falling Idols - 2:37
19 - All You Need - 2:45
20 - Freeway Time In LA County Jail - 3:17
21 - Mary - 1:34
22 - Raleigh Soliloquy Pt. III - 8:29

EAC-Log, CUE-Sheed & NFO:

Click to open spoiler
Exact Audio Copy V0.99 prebeta 4 from 23. January 2008

EAC extraction logfile from 13. April 2008, 20:52

Sublime / Robbin’ The Hood

Used drive : TSSTcorpCDDVDW TS-H653N Adapter: 3 ID: 0

Read mode : Secure
Utilize accurate stream : Yes
Defeat audio cache : Yes
Make use of C2 pointers : No

Read offset correction : 6
Overread into Lead-In and Lead-Out : No
Fill up missing offset samples with silence : Yes
Delete leading and trailing silent blocks : No
Null samples used in CRC calculations : Yes
Used interface : Native Win32 interface for Win NT & 2000
Gap handling : Appended to previous track

Used output format : User Defined Encoder
Selected bitrate : 128 kBit/s
Quality : High
Add ID3 tag : No
Command line compressor : C:\Program Files\Exact Audio Copy\Flac\flac.exe
Additional command line options : -V -8 -T “artist=%a” -T “title=%t” -T “album=%g” -T “date=%y” -T “tracknumber=%n” -T “genre=%m” %S

TOC of the extracted CD

Track | Start | Length | Start sector | End sector
———————————————————
1 | 0:00.00 | 1:02.07 | 0 | 4656
2 | 1:02.07 | 1:23.40 | 4657 | 10921
3 | 2:25.47 | 1:46.50 | 10922 | 18921
4 | 4:12.22 | 0:57.25 | 18922 | 23221
5 | 5:09.47 | 2:24.58 | 23222 | 34079
6 | 7:34.30 | 2:53.55 | 34080 | 47109
7 | 10:28.10 | 3:08.67 | 47110 | 61276
8 | 13:37.02 | 0:43.65 | 61277 | 64566
9 | 14:20.67 | 1:57.55 | 64567 | 73396
10 | 16:18.47 | 2:34.05 | 73397 | 84951
11 | 18:52.52 | 2:21.33 | 84952 | 95559
12 | 21:14.10 | 1:25.60 | 95560 | 101994
13 | 22:39.70 | 4:38.30 | 101995 | 122874
14 | 27:18.25 | 3:39.60 | 122875 | 139359
15 | 30:58.10 | 2:57.35 | 139360 | 152669
16 | 33:55.45 | 2:51.30 | 152670 | 165524
17 | 36:47.00 | 5:20.22 | 165525 | 189546
18 | 42:07.22 | 2:37.55 | 189547 | 201376
19 | 44:45.02 | 2:45.15 | 201377 | 213766
20 | 47:30.17 | 3:17.15 | 213767 | 228556
21 | 50:47.32 | 1:34.13 | 228557 | 235619
22 | 52:21.45 | 8:29.47 | 235620 | 273841

Track 1

Filename C:\Users\Eric\Desktop\Ripped Music\Sublime\Robbin’ The Hood\01_-_Waiting_For_Bud.wav

Pre-gap length 0:00:02.00

Peak level 97.6 %
Track quality 99.6 %
Test CRC 06E4E5E6
Copy CRC 06E4E5E6
Accurately ripped (confidence 20) [204E42FB]
Copy OK

Track 2

Filename C:\Users\Eric\Desktop\Ripped Music\Sublime\Robbin’ The Hood\02_-_Steady_B_Loop_Dub.wav

Peak level 98.1 %
Track quality 99.3 %
Test CRC A3F6DBF3
Copy CRC 09C9C66B
Cannot be verified as accurate (confidence 19) [CBE60E90], AccurateRip returned [CA683062]
Copy OK

Track 3

Filename C:\Users\Eric\Desktop\Ripped Music\Sublime\Robbin’ The Hood\03_-_Raleigh_Soliloquy_Pt._I.wav

Peak level 71.2 %
Track quality 99.5 %
Test CRC 1C9E7744
Copy CRC 1C9E7744
Accurately ripped (confidence 19) [D31BBC5B]
Copy OK

Track 4

Filename C:\Users\Eric\Desktop\Ripped Music\Sublime\Robbin’ The Hood\04_-_Pool_Shark_(orig.).wav

Peak level 98.8 %
Track quality 100.0 %
Test CRC 98AD357A
Copy CRC 98AD357A
Accurately ripped (confidence 19) [04D3309E]
Copy OK

Track 5

Filename C:\Users\Eric\Desktop\Ripped Music\Sublime\Robbin’ The Hood\05_-_Steppin’_Razor.wav

Peak level 96.8 %
Track quality 99.9 %
Test CRC C703ACA6
Copy CRC C703ACA6
Accurately ripped (confidence 18) [6A215505]
Copy OK

Track 6

Filename C:\Users\Eric\Desktop\Ripped Music\Sublime\Robbin’ The Hood\06_-_Greatest_Hits.wav

Peak level 99.8 %
Track quality 99.5 %
Test CRC C8F4F9EF
Copy CRC C8F4F9EF
Accurately ripped (confidence 19) [3D8EF2B2]
Copy OK

Track 7

Filename C:\Users\Eric\Desktop\Ripped Music\Sublime\Robbin’ The Hood\07_-_Free_Loop_Dub.wav

Peak level 100.0 %
Track quality 99.4 %
Test CRC 87895A91
Copy CRC 87895A91
Accurately ripped (confidence 16) [0D00E073]
Copy OK

Track 8

Filename C:\Users\Eric\Desktop\Ripped Music\Sublime\Robbin’ The Hood\08_-_Q-ball.wav

Peak level 97.7 %
Track quality 100.0 %
Test CRC 3F32FADD
Copy CRC 3F32FADD
Accurately ripped (confidence 19) [6F59D23D]
Copy OK

Track 9

Filename C:\Users\Eric\Desktop\Ripped Music\Sublime\Robbin’ The Hood\09_-_Saw_Red.wav

Peak level 99.8 %
Track quality 100.0 %
Test CRC 0050BF4C
Copy CRC 0050BF4C
Accurately ripped (confidence 19) [755E0866]
Copy OK

Track 10

Filename C:\Users\Eric\Desktop\Ripped Music\Sublime\Robbin’ The Hood\10_-_Work_That_We_Do.wav

Peak level 97.4 %
Track quality 99.9 %
Test CRC 548BA4E2
Copy CRC 548BA4E2
Accurately ripped (confidence 18) [0C82C054]
Copy OK

Track 11

Filename C:\Users\Eric\Desktop\Ripped Music\Sublime\Robbin’ The Hood\11_-_Lincoln_Highway_Dub.wav

Peak level 98.6 %
Track quality 99.9 %
Test CRC CD6CDB11
Copy CRC CD6CDB11
Accurately ripped (confidence 17) [89C60C04]
Copy OK

Track 12

Filename C:\Users\Eric\Desktop\Ripped Music\Sublime\Robbin’ The Hood\12_-_Pool_Shark_(Acoustic).wav

Peak level 96.5 %
Track quality 100.0 %
Test CRC E9B63774
Copy CRC E9B63774
Accurately ripped (confidence 17) [DDF76C84]
Copy OK

Track 13

Filename C:\Users\Eric\Desktop\Ripped Music\Sublime\Robbin’ The Hood\13_-_Cisco_Kid.wav

Peak level 98.8 %
Track quality 100.0 %
Test CRC C39756AD
Copy CRC C39756AD
Accurately ripped (confidence 17) [16AF34EC]
Copy OK

Track 14

Filename C:\Users\Eric\Desktop\Ripped Music\Sublime\Robbin’ The Hood\14_-_Raleigh_Soliloquy_Pt._II.wav

Peak level 89.9 %
Track quality 99.9 %
Test CRC E65F6796
Copy CRC E65F6796
Accurately ripped (confidence 16) [9866F4EC]
Copy OK

Track 15

Filename C:\Users\Eric\Desktop\Ripped Music\Sublime\Robbin’ The Hood\15_-_S.T.P..wav

Peak level 99.7 %
Track quality 100.0 %
Test CRC AAF79D92
Copy CRC AAF79D92
Accurately ripped (confidence 17) [FD870E34]
Copy OK

Track 16

Filename C:\Users\Eric\Desktop\Ripped Music\Sublime\Robbin’ The Hood\16_-_Boss_D.J..wav

Peak level 97.4 %
Track quality 100.0 %
Test CRC 03B95FDE
Copy CRC 03B95FDE
Accurately ripped (confidence 16) [6DC7F5D7]
Copy OK

Track 17

Filename C:\Users\Eric\Desktop\Ripped Music\Sublime\Robbin’ The Hood\17_-_I_Don’t_Care_Too_Much_For_Reggae_Dub.wav

Pre-gap length 0:00:00.01

Peak level 88.8 %
Track quality 99.9 %
Test CRC DC315932
Copy CRC DC315932
Accurately ripped (confidence 16) [1ADE8C6E]
Copy OK

Track 18

Filename C:\Users\Eric\Desktop\Ripped Music\Sublime\Robbin’ The Hood\18_-_Falling_Idols.wav

Peak level 100.0 %
Track quality 99.8 %
Test CRC 810ACF81
Copy CRC 76132BF2
Cannot be verified as accurate (confidence 17) [AAC23EE2], AccurateRip returned [EB169990]
Copy OK

Track 19

Filename C:\Users\Eric\Desktop\Ripped Music\Sublime\Robbin’ The Hood\19_-_All_You_Need.wav

Peak level 100.0 %
Track quality 99.9 %
Test CRC 437232ED
Copy CRC 437232ED
Accurately ripped (confidence 16) [B37D4C74]
Copy OK

Track 20

Filename C:\Users\Eric\Desktop\Ripped Music\Sublime\Robbin’ The Hood\20_-_Freeway_Time_In_L.A._County_Jail.wav

Peak level 98.2 %
Track quality 100.0 %
Test CRC F4902D53
Copy CRC F4902D53
Accurately ripped (confidence 14) [67449C11]
Copy OK

Track 21

Filename C:\Users\Eric\Desktop\Ripped Music\Sublime\Robbin’ The Hood\21_-_Mary.wav

Peak level 99.0 %
Track quality 100.0 %
Test CRC 8F7F9F85
Copy CRC 8F7F9F85
Accurately ripped (confidence 16) [47E88D4E]
Copy OK

Track 22

Filename C:\Users\Eric\Desktop\Ripped Music\Sublime\Robbin’ The Hood\22_-_Raleigh_Soliloquy_Pt._III.wav

Peak level 98.7 %
Track quality 100.0 %
Test CRC DA252D9E
Copy CRC DA252D9E
Accurately ripped (confidence 15) [3BD3747F]
Copy OK

20 track(s) accurately ripped
2 track(s) could not be verified as accurate

Some tracks could not be verified as accurate

No errors occurred

End of status report

REM GENRE Rock
REM DATE 1994
REM DISCID 200E4316
REM COMMENT “ExactAudioCopy v0.99pb4”
PERFORMER “Sublime”
TITLE “Robbin’ The Hood”
FILE “Sublime\Robbin’ The Hood\01 – Waiting For Bud.wav” WAVE
TRACK 01 AUDIO
TITLE “Waiting For Bud”
PERFORMER “Sublime”
INDEX 01 00:00:00
FILE “Sublime\Robbin’ The Hood\02 – Steady B Loop Dub.wav” WAVE
TRACK 02 AUDIO
TITLE “Steady B Loop Dub”
PERFORMER “Sublime”
INDEX 01 00:00:00
FILE “Sublime\Robbin’ The Hood\03 – Raleigh Soliloquy Pt. I.wav” WAVE
TRACK 03 AUDIO
TITLE “Raleigh Soliloquy Pt. I”
PERFORMER “Sublime”
INDEX 01 00:00:00
FILE “Sublime\Robbin’ The Hood\04 – Pool Shark (orig.).wav” WAVE
TRACK 04 AUDIO
TITLE “Pool Shark (orig.)”
PERFORMER “Sublime”
INDEX 01 00:00:00
FILE “Sublime\Robbin’ The Hood\05 – Steppin’ Razor.wav” WAVE
TRACK 05 AUDIO
TITLE “Steppin’ Razor”
PERFORMER “Sublime”
INDEX 01 00:00:00
FILE “Sublime\Robbin’ The Hood\06 – Greatest Hits.wav” WAVE
TRACK 06 AUDIO
TITLE “Greatest Hits”
PERFORMER “Sublime”
INDEX 01 00:00:00
FILE “Sublime\Robbin’ The Hood\07 – Free Loop Dub.wav” WAVE
TRACK 07 AUDIO
TITLE “Free Loop Dub”
PERFORMER “Sublime”
INDEX 01 00:00:00
FILE “Sublime\Robbin’ The Hood\08 – Q-ball.wav” WAVE
TRACK 08 AUDIO
TITLE “Q-ball”
PERFORMER “Sublime”
INDEX 01 00:00:00
FILE “Sublime\Robbin’ The Hood\09 – Saw Red.wav” WAVE
TRACK 09 AUDIO
TITLE “Saw Red”
PERFORMER “Sublime”
INDEX 01 00:00:00
FILE “Sublime\Robbin’ The Hood\10 – Work That We Do.wav” WAVE
TRACK 10 AUDIO
TITLE “Work That We Do”
PERFORMER “Sublime”
INDEX 01 00:00:00
FILE “Sublime\Robbin’ The Hood\11 – Lincoln Highway Dub.wav” WAVE
TRACK 11 AUDIO
TITLE “Lincoln Highway Dub”
PERFORMER “Sublime”
INDEX 01 00:00:00
FILE “Sublime\Robbin’ The Hood\12 – Pool Shark (Acoustic).wav” WAVE
TRACK 12 AUDIO
TITLE “Pool Shark (Acoustic)”
PERFORMER “Sublime”
INDEX 01 00:00:00
FILE “Sublime\Robbin’ The Hood\13 – Cisco Kid.wav” WAVE
TRACK 13 AUDIO
TITLE “Cisco Kid”
PERFORMER “Sublime”
INDEX 01 00:00:00
FILE “Sublime\Robbin’ The Hood\14 – Raleigh Soliloquy Pt. II.wav” WAVE
TRACK 14 AUDIO
TITLE “Raleigh Soliloquy Pt. II”
PERFORMER “Sublime”
INDEX 01 00:00:00
FILE “Sublime\Robbin’ The Hood\15 – S.T.P..wav” WAVE
TRACK 15 AUDIO
TITLE “S.T.P.”
PERFORMER “Sublime”
INDEX 01 00:00:00
FILE “Sublime\Robbin’ The Hood\16 – Boss D.J..wav” WAVE
TRACK 16 AUDIO
TITLE “Boss D.J.”
PERFORMER “Sublime”
INDEX 01 00:00:00
FILE “Sublime\Robbin’ The Hood\17 – I Don’t Care Too Much For Reggae Dub.wav” WAVE
TRACK 17 AUDIO
TITLE “I Don’t Care Too Much For Reggae Dub”
PERFORMER “Sublime”
INDEX 01 00:00:00
FILE “Sublime\Robbin’ The Hood\18 – Falling Idols.wav” WAVE
TRACK 18 AUDIO
TITLE “Falling Idols”
PERFORMER “Sublime”
INDEX 01 00:00:00
FILE “Sublime\Robbin’ The Hood\19 – All You Need.wav” WAVE
TRACK 19 AUDIO
TITLE “All You Need”
PERFORMER “Sublime”
INDEX 01 00:00:00
FILE “Sublime\Robbin’ The Hood\20 – Freeway Time In L.A. County Jail.wav” WAVE
TRACK 20 AUDIO
TITLE “Freeway Time In L.A. County Jail”
PERFORMER “Sublime”
INDEX 01 00:00:00
FILE “Sublime\Robbin’ The Hood\21 – Mary.wav” WAVE
TRACK 21 AUDIO
TITLE “Mary”
PERFORMER “Sublime”
INDEX 01 00:00:00
FILE “Sublime\Robbin’ The Hood\22 – Raleigh Soliloquy Pt. III.wav” WAVE
TRACK 22 AUDIO
TITLE “Raleigh Soliloquy Pt. III”
PERFORMER “Sublime”
INDEX 01 00:00:00


Leave a Reply

Your email address will not be published. Required fields are marked *

This site uses Akismet to reduce spam. Learn how your comment data is processed.