Sublime – It All Seems So Silly In The Long Run




No Cover available

Artist: Sublime
Year: 1996
Genre: Ska
Notes: Discogs
Add. Notes:
Watch Songs on: YouTube
Cover incl.: Yes
Encoder: FLAC
Bitrate: ~800 kBit/s (44.1 kHz/16 Bit/s)
Log & Cue incl.: Yes
Size: 389,8 MB
Password: “slam” (without ” “)


All Downloads/Hosters are compatible

Download 1
KatFile.com
Turbobit.net
Rapidgator.net
FileFactory.com
Download 2
KatFile.com
Turbobit.net
Rapidgator.net
FileFactory.com

Tracklist:

1 - Intro - 0:49
2 - Don't Push Medley: Right Back - 11:42
3 - 40 Oz. - 3:12
4 - Greatest Hits - 3:30
5 - Hope - 1:43
6 - Scarlet Begonias - 3:32
7 - It Don't Work - 4:15
8 - STP - 2:57
9 - Badfish - 3:04
10 - Poolshark - 2:24
11 - Courtney - 2:29
12 - Krs One - 4:52
13 - Smoke 2 Joints - 2:31
14 - Pawnshop / Dj's Dub - 8:59
15 - Same In The End - 2:36
16 - Sound Check - 5:25

EAC-Log, CUE-Sheed & NFO:

Click to open spoiler
Exact Audio Copy V0.99 prebeta 3 from 28. July 2007

EAC extraction logfile from 26. June 2009, 14:52

Sublime / It All Seems So Silly in the Long Run

Used drive : TSSTcorpCDDVDW SH-S203B Adapter: 4 ID: 1

Read mode : Secure
Utilize accurate stream : Yes
Defeat audio cache : Yes
Make use of C2 pointers : No

Read offset correction : 6
Overread into Lead-In and Lead-Out : No
Fill up missing offset samples with silence : Yes
Delete leading and trailing silent blocks : No
Null samples used in CRC calculations : Yes
Used interface : Native Win32 interface for Win NT & 2000
Gap handling : Appended to previous track

Used output format : User Defined Encoder
Selected bitrate : 1024 kBit/s
Quality : High
Add ID3 tag : No
Command line compressor : C:\Program Files\Exact Audio Copy\Flac\flac.exe
Additional command line options : -V -8 -T “artist=%a” -T “title=%t” -T “album=%g” -T “date=%y” -T “tracknumber=%n” -T “genre=%m” %s

TOC of the extracted CD

Track | Start | Length | Start sector | End sector
———————————————————
1 | 0:00.00 | 0:49.07 | 0 | 3681
2 | 0:49.07 | 11:42.59 | 3682 | 56390
3 | 12:31.66 | 3:11.52 | 56391 | 70767
4 | 15:43.43 | 3:30.43 | 70768 | 86560
5 | 19:14.11 | 1:56.44 | 86561 | 95304
6 | 21:10.55 | 4:01.39 | 95305 | 113418
7 | 25:12.19 | 4:15.04 | 113419 | 132547
8 | 29:27.23 | 3:31.29 | 132548 | 148401
9 | 32:58.52 | 3:33.44 | 148402 | 164420
10 | 36:32.21 | 2:26.31 | 164421 | 175401
11 | 38:58.52 | 2:31.49 | 175402 | 186775
12 | 41:30.26 | 4:52.31 | 186776 | 208706
13 | 46:22.57 | 2:30.39 | 208707 | 219995
14 | 48:53.21 | 8:57.24 | 219996 | 260294
15 | 57:50.45 | 2:00.72 | 260295 | 269366
16 | 59:51.42 | 7:02.31 | 269367 | 301047

Track 1

Filename C:\Rips\Sublime – It All Seems So Silly in the Long Run – 01 – Intro.wav

Pre-gap length 0:00:02.00

Peak level 100.0 %
Track quality 100.0 %
Test CRC ABEFD8F5
Copy CRC ABEFD8F5
Track not present in AccurateRip database
Copy OK

Track 2

Filename C:\Rips\Sublime – It All Seems So Silly in the Long Run – 02 – Don’t Push Medley.wav

Peak level 100.0 %
Track quality 100.0 %
Test CRC 87D901A9
Copy CRC 87D901A9
Track not present in AccurateRip database
Copy OK

Track 3

Filename C:\Rips\Sublime – It All Seems So Silly in the Long Run – 03 – 40oz..wav

Pre-gap length 0:00:01.00

Peak level 100.0 %
Track quality 100.0 %
Test CRC 2C69A66F
Copy CRC 2C69A66F
Track not present in AccurateRip database
Copy OK

Track 4

Filename C:\Rips\Sublime – It All Seems So Silly in the Long Run – 04 – Greatest Hits.wav

Peak level 100.0 %
Track quality 100.0 %
Test CRC C441F4FE
Copy CRC C441F4FE
Track not present in AccurateRip database
Copy OK

Track 5

Filename C:\Rips\Sublime – It All Seems So Silly in the Long Run – 05 – Hope.wav

Peak level 100.0 %
Track quality 100.0 %
Test CRC FC87883A
Copy CRC FC87883A
Track not present in AccurateRip database
Copy OK

Track 6

Filename C:\Rips\Sublime – It All Seems So Silly in the Long Run – 06 – Scarlett Begonias.wav

Peak level 100.0 %
Track quality 100.0 %
Test CRC EF758BFF
Copy CRC EF758BFF
Track not present in AccurateRip database
Copy OK

Track 7

Filename C:\Rips\Sublime – It All Seems So Silly in the Long Run – 07 – It Don’t Work.wav

Peak level 100.0 %
Track quality 100.0 %
Test CRC 40FD6515
Copy CRC 40FD6515
Track not present in AccurateRip database
Copy OK

Track 8

Filename C:\Rips\Sublime – It All Seems So Silly in the Long Run – 08 – STP.wav

Pre-gap length 0:00:02.00

Peak level 100.0 %
Track quality 100.0 %
Test CRC 39FE3C64
Copy CRC 39FE3C64
Track not present in AccurateRip database
Copy OK

Track 9

Filename C:\Rips\Sublime – It All Seems So Silly in the Long Run – 09 – Badfish.wav

Pre-gap length 0:00:01.00

Peak level 100.0 %
Track quality 100.0 %
Test CRC 38666181
Copy CRC 38666181
Track not present in AccurateRip database
Copy OK

Track 10

Filename C:\Rips\Sublime – It All Seems So Silly in the Long Run – 10 – PoolShark.wav

Pre-gap length 0:00:00.98

Peak level 100.0 %
Track quality 100.0 %
Test CRC 195F1E8A
Copy CRC 195F1E8A
Track not present in AccurateRip database
Copy OK

Track 11

Filename C:\Rips\Sublime – It All Seems So Silly in the Long Run – 11 – Courteny.wav

Pre-gap length 0:00:03.00

Peak level 44.1 %
Track quality 100.0 %
Test CRC B97852F3
Copy CRC B97852F3
Track not present in AccurateRip database
Copy OK

Track 12

Filename C:\Rips\Sublime – It All Seems So Silly in the Long Run – 12 – KRS-1.wav

Pre-gap length 0:00:04.00

Peak level 100.0 %
Track quality 100.0 %
Test CRC E4C3F092
Copy CRC E4C3F092
Track not present in AccurateRip database
Copy OK

Track 13

Filename C:\Rips\Sublime – It All Seems So Silly in the Long Run – 13 – Smoke 2 Joints.wav

Peak level 100.0 %
Track quality 100.0 %
Test CRC 0D7232B8
Copy CRC 0D7232B8
Track not present in AccurateRip database
Copy OK

Track 14

Filename C:\Rips\Sublime – It All Seems So Silly in the Long Run – 14 – Pawnshop, DJ’s Dub.wav

Pre-gap length 0:00:02.00

Peak level 100.0 %
Track quality 100.0 %
Test CRC 2226F5D0
Copy CRC 2226F5D0
Track not present in AccurateRip database
Copy OK

Track 15

Filename C:\Rips\Sublime – It All Seems So Silly in the Long Run – 15 – Same in the End.wav

Pre-gap length 0:00:00.98

Peak level 100.0 %
Track quality 100.0 %
Test CRC 343459E9
Copy CRC 343459E9
Track not present in AccurateRip database
Copy OK

Track 16

Filename C:\Rips\Sublime – It All Seems So Silly in the Long Run – 16 – Sound Check.wav

Peak level 100.0 %
Track quality 99.9 %
Test CRC 908DD99D
Copy CRC 908DD99D
Track not present in AccurateRip database
Copy OK

None of the tracks are present in the AccurateRip database

No errors occurred

End of status report

REM DISCID EC0FAD10
REM COMMENT “ExactAudioCopy v0.99pb3”
FILE “Sublime – It All Seems So Silly in the Long Run – 01 – Intro.wav” WAVE
TRACK 01 AUDIO
FLAGS DCP
INDEX 01 00:00:00
FILE “Sublime – It All Seems So Silly in the Long Run – 02 – Don’t Push Medley.wav” WAVE
TRACK 02 AUDIO
FLAGS DCP
INDEX 01 00:00:00
TRACK 03 AUDIO
FLAGS DCP
INDEX 00 11:41:59
FILE “Sublime – It All Seems So Silly in the Long Run – 03 – 40oz..wav” WAVE
INDEX 01 00:00:00
FILE “Sublime – It All Seems So Silly in the Long Run – 04 – Greatest Hits.wav” WAVE
TRACK 04 AUDIO
FLAGS DCP
INDEX 01 00:00:00
FILE “Sublime – It All Seems So Silly in the Long Run – 05 – Hope.wav” WAVE
TRACK 05 AUDIO
FLAGS DCP
INDEX 01 00:00:00
FILE “Sublime – It All Seems So Silly in the Long Run – 06 – Scarlett Begonias.wav” WAVE
TRACK 06 AUDIO
FLAGS DCP
INDEX 01 00:00:00
FILE “Sublime – It All Seems So Silly in the Long Run – 07 – It Don’t Work.wav” WAVE
TRACK 07 AUDIO
FLAGS DCP
INDEX 01 00:00:00
TRACK 08 AUDIO
FLAGS DCP
INDEX 00 04:13:04
FILE “Sublime – It All Seems So Silly in the Long Run – 08 – STP.wav” WAVE
INDEX 01 00:00:00
TRACK 09 AUDIO
FLAGS DCP
INDEX 00 03:30:29
FILE “Sublime – It All Seems So Silly in the Long Run – 09 – Badfish.wav” WAVE
INDEX 01 00:00:00
TRACK 10 AUDIO
FLAGS DCP
INDEX 00 03:32:45
FILE “Sublime – It All Seems So Silly in the Long Run – 10 – PoolShark.wav” WAVE
INDEX 01 00:00:00
TRACK 11 AUDIO
FLAGS DCP
INDEX 00 02:23:31
FILE “Sublime – It All Seems So Silly in the Long Run – 11 – Courteny.wav” WAVE
INDEX 01 00:00:00
TRACK 12 AUDIO
FLAGS DCP
INDEX 00 02:27:49
FILE “Sublime – It All Seems So Silly in the Long Run – 12 – KRS-1.wav” WAVE
INDEX 01 00:00:00
FILE “Sublime – It All Seems So Silly in the Long Run – 13 – Smoke 2 Joints.wav” WAVE
TRACK 13 AUDIO
FLAGS DCP
INDEX 01 00:00:00
TRACK 14 AUDIO
FLAGS DCP
INDEX 00 02:28:39
FILE “Sublime – It All Seems So Silly in the Long Run – 14 – Pawnshop, DJ’s Dub.wav” WAVE
INDEX 01 00:00:00
TRACK 15 AUDIO
FLAGS DCP
INDEX 00 08:56:25
FILE “Sublime – It All Seems So Silly in the Long Run – 15 – Same in the End.wav” WAVE
INDEX 01 00:00:00
FILE “Sublime – It All Seems So Silly in the Long Run – 16 – Sound Check.wav” WAVE
TRACK 16 AUDIO
FLAGS DCP
INDEX 01 00:00:00


Leave a Reply

Your email address will not be published. Required fields are marked *

Enter the text from the image below
 

This site uses Akismet to reduce spam. Learn how your comment data is processed.