Sublime – Hollywood Swingers (Live)




No Cover available

Artist: Sublime
Year: 1998
Genre: Ska
Notes: Discogs
Add. Notes:
Watch Songs on: YouTube
Cover incl.: Yes
Encoder: FLAC
Bitrate: ~800 kBit/s (44.1 kHz/16 Bit/s)
Log & Cue incl.: Yes
Size: 393,9 MB
Password: “slam” (without ” “)


All Downloads/Hosters are compatible

Download 1
KatFile.com
Turbobit.net
Rapidgator.net
FileFactory.com
Download 2
KatFile.com
Turbobit.net
Rapidgator.net
FileFactory.com

Tracklist:

1  - Garden Grove  
2  - Badfish  
3  - 40 Oz. To Freedom  
4  - Starlet Begonias  
5  - Don't Push  
6  - Garden Grove (Reprise)  
7  - Right Back  
8  - 5446 That's My Number   
9  - STP / All You Need  
10  - Second That Emotion   
11  - Drum & Bass Jam  
12  - We're Onlt Gonna Die For Our Ignorance  
13  - Dj's  
14  - Message To Rudy  
15  - Chin  
16  - Pool Shark  
17  - I Saw Red   
18  - Let's Go Get Stoned

EAC-Log, CUE-Sheed & NFO:

Click to open spoiler
Exact Audio Copy V0.99 prebeta 3 from 28. July 2007

EAC extraction logfile from 17. June 2008, 9:44

Sublime / Hollywood Swingers (Live)

Used drive : TSSTcorpCD/DVDW TS-H653L Adapter: 0 ID: 1

Read mode : Secure
Utilize accurate stream : Yes
Defeat audio cache : Yes
Make use of C2 pointers : No

Read offset correction : 6
Overread into Lead-In and Lead-Out : No
Fill up missing offset samples with silence : Yes
Delete leading and trailing silent blocks : No
Null samples used in CRC calculations : Yes
Used interface : Native Win32 interface for Win NT & 2000
Gap handling : Appended to previous track

Used output format : User Defined Encoder
Selected bitrate : 768 kBit/s
Quality : High
Add ID3 tag : No
Command line compressor : C:\Program Files\Exact Audio Copy\Flac\flac.exe
Additional command line options : -8 -A tukey(0.25) -A gauss(0.1875) -b 4096 -V -T “artist=%a” -T “title=%t” -T “album=%g” -T “date=%y” -T “tracknumber=%n” -T “genre=%m” %s –sector-align

TOC of the extracted CD

Track | Start | Length | Start sector | End sector
———————————————————
1 | 0:00.00 | 5:30.55 | 0 | 24804
2 | 5:30.55 | 3:10.31 | 24805 | 39085
3 | 8:41.11 | 3:03.26 | 39086 | 52836
4 | 11:44.37 | 3:53.44 | 52837 | 70355
5 | 15:38.06 | 8:57.44 | 70356 | 110674
6 | 24:35.50 | 2:10.51 | 110675 | 120475
7 | 26:46.26 | 2:52.15 | 120476 | 133390
8 | 29:38.41 | 2:04.21 | 133391 | 142711
9 | 31:42.62 | 4:06.30 | 142712 | 161191
10 | 35:49.17 | 4:28.74 | 161192 | 181365
11 | 40:18.16 | 3:40.09 | 181366 | 197874
12 | 43:58.25 | 4:22.50 | 197875 | 217574
13 | 48:21.00 | 5:20.33 | 217575 | 241607
14 | 53:41.33 | 7:24.39 | 241608 | 274946
15 | 61:05.72 | 1:49.17 | 274947 | 283138
16 | 62:55.14 | 1:16.68 | 283139 | 288906
17 | 64:12.07 | 6:35.16 | 288907 | 318547

Track 1

Filename C:\Users\Derek\Music\WHAT.CD\Sublime- Hollywood Swingers (Live) (FLAC)\01.Garden Grove intro,Greatest Hits.wav

Pre-gap length 0:00:02.00

Peak level 80.3 %
Track quality 99.9 %
Test CRC 5BC0D3A8
Copy CRC 5BC0D3A8
Track not present in AccurateRip database
Copy OK

Track 2

Filename C:\Users\Derek\Music\WHAT.CD\Sublime- Hollywood Swingers (Live) (FLAC)\02.Badfish.wav

Peak level 93.1 %
Track quality 100.0 %
Test CRC 4E5A0403
Copy CRC 4E5A0403
Track not present in AccurateRip database
Copy OK

Track 3

Filename C:\Users\Derek\Music\WHAT.CD\Sublime- Hollywood Swingers (Live) (FLAC)\03.40oz. to Freedom.wav

Pre-gap length 0:00:00.01

Peak level 78.8 %
Track quality 100.0 %
Test CRC 44C4C872
Copy CRC 44C4C872
Track not present in AccurateRip database
Copy OK

Track 4

Filename C:\Users\Derek\Music\WHAT.CD\Sublime- Hollywood Swingers (Live) (FLAC)\04.Scarlet Begonias.wav

Pre-gap length 0:00:00.01

Peak level 97.3 %
Track quality 100.0 %
Test CRC 03F37F71
Copy CRC 03F37F71
Track not present in AccurateRip database
Copy OK

Track 5

Filename C:\Users\Derek\Music\WHAT.CD\Sublime- Hollywood Swingers (Live) (FLAC)\05.Don’t Push,Garden Grove,Don’t Push,Right Back,New Thrash.wav

Peak level 99.4 %
Track quality 99.9 %
Test CRC 43399A88
Copy CRC 43399A88
Track not present in AccurateRip database
Copy OK

Track 6

Filename C:\Users\Derek\Music\WHAT.CD\Sublime- Hollywood Swingers (Live) (FLAC)\06.5446.wav

Peak level 85.3 %
Track quality 100.0 %
Test CRC ABD9BE43
Copy CRC ABD9BE43
Track not present in AccurateRip database
Copy OK

Track 7

Filename C:\Users\Derek\Music\WHAT.CD\Sublime- Hollywood Swingers (Live) (FLAC)\07.House of Suffering.wav

Peak level 90.1 %
Track quality 100.0 %
Test CRC 05A97C0C
Copy CRC 05A97C0C
Track not present in AccurateRip database
Copy OK

Track 8

Filename C:\Users\Derek\Music\WHAT.CD\Sublime- Hollywood Swingers (Live) (FLAC)\08.All You Need.wav

Pre-gap length 0:00:00.01

Peak level 70.2 %
Track quality 100.0 %
Test CRC 8882287E
Copy CRC 8882287E
Track not present in AccurateRip database
Copy OK

Track 9

Filename C:\Users\Derek\Music\WHAT.CD\Sublime- Hollywood Swingers (Live) (FLAC)\09.STP,Second That Emotion tease.wav

Pre-gap length 0:00:00.01

Peak level 83.2 %
Track quality 99.9 %
Test CRC B81C0736
Copy CRC B81C0736
Track not present in AccurateRip database
Copy OK

Track 10

Filename C:\Users\Derek\Music\WHAT.CD\Sublime- Hollywood Swingers (Live) (FLAC)\10.Falling Idols.wav

Peak level 86.7 %
Track quality 99.9 %
Test CRC 06881DB6
Copy CRC 06881DB6
Track not present in AccurateRip database
Copy OK

Track 11

Filename C:\Users\Derek\Music\WHAT.CD\Sublime- Hollywood Swingers (Live) (FLAC)\11.Drum & Bass jam.wav

Pre-gap length 0:00:00.01

Peak level 83.8 %
Track quality 100.0 %
Test CRC 3EABBFCD
Copy CRC 3EABBFCD
Track not present in AccurateRip database
Copy OK

Track 12

Filename C:\Users\Derek\Music\WHAT.CD\Sublime- Hollywood Swingers (Live) (FLAC)\12.We’re Only Gonna Die….wav

Peak level 84.3 %
Track quality 99.9 %
Test CRC EB71F180
Copy CRC EB71F180
Track not present in AccurateRip database
Copy OK

Track 13

Filename C:\Users\Derek\Music\WHAT.CD\Sublime- Hollywood Swingers (Live) (FLAC)\13.DJ’s.wav

Pre-gap length 0:00:00.01

Peak level 88.8 %
Track quality 99.9 %
Test CRC 8FC91D3E
Copy CRC 8FC91D3E
Track not present in AccurateRip database
Copy OK

Track 14

Filename C:\Users\Derek\Music\WHAT.CD\Sublime- Hollywood Swingers (Live) (FLAC)\14.Ebin,Ruca intro.wav

Pre-gap length 0:00:00.01

Peak level 98.6 %
Track quality 100.0 %
Test CRC E95DB551
Copy CRC E95DB551
Track not present in AccurateRip database
Copy OK

Track 15

Filename C:\Users\Derek\Music\WHAT.CD\Sublime- Hollywood Swingers (Live) (FLAC)\15.Pool Shark.wav

Peak level 70.8 %
Track quality 99.9 %
Test CRC B138B48C
Copy CRC B138B48C
Track not present in AccurateRip database
Copy OK

Track 16

Filename C:\Users\Derek\Music\WHAT.CD\Sublime- Hollywood Swingers (Live) (FLAC)\16.Saw Red.wav

Peak level 71.1 %
Track quality 100.0 %
Test CRC B3F37BC1
Copy CRC B3F37BC1
Track not present in AccurateRip database
Copy OK

Track 17

Filename C:\Users\Derek\Music\WHAT.CD\Sublime- Hollywood Swingers (Live) (FLAC)\17.Let’s Go Get Stoned.wav

Pre-gap length 0:00:00.01

Peak level 88.0 %
Track quality 100.0 %
Test CRC 6C49DA81
Copy CRC 6C49DA81
Track not present in AccurateRip database
Copy OK

None of the tracks are present in the AccurateRip database

No errors occurred

End of status report

REM GENRE Rock
REM DATE 1998
REM DISCID E5109711
REM COMMENT “ExactAudioCopy v0.99pb3”
PERFORMER “Sublime”
TITLE “Hollywood Swingers (Live)”
FILE “01.Garden Grove intro,Greatest Hits.wav” WAVE
TRACK 01 AUDIO
TITLE “Garden Grove intro/Greatest Hits”
PERFORMER “Sublime”
INDEX 01 00:00:00
FILE “02.Badfish.wav” WAVE
TRACK 02 AUDIO
TITLE “Badfish”
PERFORMER “Sublime”
INDEX 01 00:00:00
TRACK 03 AUDIO
TITLE “40oz. to Freedom”
PERFORMER “Sublime”
INDEX 00 03:10:30
FILE “03.40oz. to Freedom.wav” WAVE
INDEX 01 00:00:00
TRACK 04 AUDIO
TITLE “Scarlet Begonias”
PERFORMER “Sublime”
INDEX 00 03:03:25
FILE “04.Scarlet Begonias.wav” WAVE
INDEX 01 00:00:00
FILE “05.Don’t Push,Garden Grove,Don’t Push,Right Back,New Thrash.wav” WAVE
TRACK 05 AUDIO
TITLE “Don’t Push/Garden Grove/Don’t Push/Right Back/New Thrash”
PERFORMER “Sublime”
INDEX 01 00:00:00
FILE “06.5446.wav” WAVE
TRACK 06 AUDIO
TITLE “5446”
PERFORMER “Sublime”
INDEX 01 00:00:00
FILE “07.House of Suffering.wav” WAVE
TRACK 07 AUDIO
TITLE “House of Suffering”
PERFORMER “Sublime”
INDEX 01 00:00:00
TRACK 08 AUDIO
TITLE “All You Need”
PERFORMER “Sublime”
INDEX 00 02:52:14
FILE “08.All You Need.wav” WAVE
INDEX 01 00:00:00
TRACK 09 AUDIO
TITLE “STP/Second That Emotion tease”
PERFORMER “Sublime”
INDEX 00 02:04:20
FILE “09.STP,Second That Emotion tease.wav” WAVE
INDEX 01 00:00:00
FILE “10.Falling Idols.wav” WAVE
TRACK 10 AUDIO
TITLE “Falling Idols”
PERFORMER “Sublime”
INDEX 01 00:00:00
TRACK 11 AUDIO
TITLE “Drum & Bass jam”
PERFORMER “Sublime”
INDEX 00 04:28:73
FILE “11.Drum & Bass jam.wav” WAVE
INDEX 01 00:00:00
FILE “12.We’re Only Gonna Die….wav” WAVE
TRACK 12 AUDIO
TITLE “We’re Only Gonna Die…”
PERFORMER “Sublime”
INDEX 01 00:00:00
TRACK 13 AUDIO
TITLE “DJ’s”
PERFORMER “Sublime”
INDEX 00 04:22:49
FILE “13.DJ’s.wav” WAVE
INDEX 01 00:00:00
TRACK 14 AUDIO
TITLE “Ebin/Ruca intro”
PERFORMER “Sublime”
INDEX 00 05:20:32
FILE “14.Ebin,Ruca intro.wav” WAVE
INDEX 01 00:00:00
FILE “15.Pool Shark.wav” WAVE
TRACK 15 AUDIO
TITLE “Pool Shark”
PERFORMER “Sublime”
INDEX 01 00:00:00
FILE “16.Saw Red.wav” WAVE
TRACK 16 AUDIO
TITLE “Saw Red”
PERFORMER “Sublime”
INDEX 01 00:00:00
TRACK 17 AUDIO
TITLE “Let’s Go Get Stoned”
PERFORMER “Sublime”
INDEX 00 01:16:67
FILE “17.Let’s Go Get Stoned.wav” WAVE
INDEX 01 00:00:00


Leave a Reply

Your email address will not be published. Required fields are marked *

Enter the text from the image below
 

This site uses Akismet to reduce spam. Learn how your comment data is processed.