Sublime – Greatest Hits




No Cover available

Artist: Sublime
Year: 2005
Genre: Ska
Notes: Discogs
Add. Notes:
Watch Songs on: YouTube
Cover incl.: Yes
Encoder: FLAC
Bitrate: ~900 kBit/s (44.1 kHz/16 Bit/s)
Log & Cue incl.: Yes
Size: 188,8 MB
Password: “slam” (without ” “)


All Downloads/Hosters are compatible

Download 1
KatFile.com
Turbobit.net
Rapidgator.net
FileFactory.com
Download 2
KatFile.com
Turbobit.net
Rapidgator.net
FileFactory.com

Tracklist:

1 What I Got 2:51
2 Wrong Way 2:16
3 Santeria 3:03
4 40 Oz. To Freedom 3:02
5 Smoke Two Joints 2:53
6 Date Rape 3:35
7 Saw Red 1:57
8 Badfish 3:09
9 Doin' Time 4:09
10 Poolshark 0:59

EAC-Log, CUE-Sheed & NFO:

Click to open spoiler
Exact Audio Copy V0.99 prebeta 4 from 23. January 2008

EAC extraction logfile from 4. February 2009, 18:29

Sublime / Greatest Hits

Used drive : TSSTcorpDVD+-RW TS-L632H Adapter: 0 ID: 0

Read mode : Secure
Utilize accurate stream : Yes
Defeat audio cache : Yes
Make use of C2 pointers : No

Read offset correction : 6
Overread into Lead-In and Lead-Out : No
Fill up missing offset samples with silence : Yes
Delete leading and trailing silent blocks : No
Null samples used in CRC calculations : Yes
Used interface : Native Win32 interface for Win NT & 2000
Gap handling : Appended to previous track

Used output format : User Defined Encoder
Selected bitrate : 128 kBit/s
Quality : High
Add ID3 tag : No
Command line compressor : D:\Program Files\FLAC\flac.exe
Additional command line options : -V -8 -T “artist=%a” -T “title=%t” -T “album=%g” -T “date=%y” -T “tracknumber=%n” -T “genre=%m” %s

TOC of the extracted CD

Track | Start | Length | Start sector | End sector
———————————————————
1 | 0:00.00 | 2:51.32 | 0 | 12856
2 | 2:51.32 | 2:16.28 | 12857 | 23084
3 | 5:07.60 | 3:03.15 | 23085 | 36824
4 | 8:11.00 | 3:02.72 | 36825 | 50546
5 | 11:13.72 | 2:53.28 | 50547 | 63549
6 | 14:07.25 | 3:35.47 | 63550 | 79721
7 | 17:42.72 | 1:57.58 | 79722 | 88554
8 | 19:40.55 | 3:09.00 | 88555 | 102729
9 | 22:49.55 | 4:09.17 | 102730 | 121421
10 | 26:58.72 | 0:57.30 | 121422 | 125726
11 | 30:28.27 | 8:54.30 | 137127 | 177206

Track 1

Filename H:\Rips\Sublime\Sublime – Greatest Hits\01 – What I Got.wav

Pre-gap length 0:00:02.00

Peak level 100.0 %
Track quality 100.0 %
Test CRC 9FF5CD3E
Copy CRC 9FF5CD3E
Copy OK

Track 2

Filename H:\Rips\Sublime\Sublime – Greatest Hits\02 – Wrong Way.wav

Peak level 100.0 %
Track quality 100.0 %
Test CRC 68014D29
Copy CRC 68014D29
Copy OK

Track 3

Filename H:\Rips\Sublime\Sublime – Greatest Hits\03 – Santeria.wav

Peak level 100.0 %
Track quality 100.0 %
Test CRC C4C17983
Copy CRC C4C17983
Copy OK

Track 4

Filename H:\Rips\Sublime\Sublime – Greatest Hits\04 – 40 oz. to Freedom.wav

Peak level 100.0 %
Track quality 99.9 %
Test CRC FE4C2DD7
Copy CRC FE4C2DD7
Copy OK

Track 5

Filename H:\Rips\Sublime\Sublime – Greatest Hits\05 – Smoke Two Joints.wav

Peak level 100.0 %
Track quality 100.0 %
Test CRC 410F7CCB
Copy CRC 410F7CCB
Copy OK

Track 6

Filename H:\Rips\Sublime\Sublime – Greatest Hits\06 – Date Rape.wav

Peak level 100.0 %
Track quality 100.0 %
Test CRC 20BB4A6F
Copy CRC 20BB4A6F
Copy OK

Track 7

Filename H:\Rips\Sublime\Sublime – Greatest Hits\07 – Saw Red.wav

Peak level 99.2 %
Track quality 100.0 %
Test CRC EB0FD596
Copy CRC EB0FD596
Copy OK

Track 8

Filename H:\Rips\Sublime\Sublime – Greatest Hits\08 – Badfish.wav

Peak level 99.8 %
Track quality 100.0 %
Test CRC 674CD578
Copy CRC 674CD578
Copy OK

Track 9

Filename H:\Rips\Sublime\Sublime – Greatest Hits\09 – Doin’ Time.wav

Pre-gap length 0:00:01.97

Peak level 100.0 %
Track quality 100.0 %
Test CRC CEAC3921
Copy CRC CEAC3921
Copy OK

Track 10

Filename H:\Rips\Sublime\Sublime – Greatest Hits\10 – Poolshark.wav

Peak level 98.4 %
Track quality 100.0 %
Test CRC 3A513B27
Copy CRC 3A513B27
Copy OK

No errors occurred

End of status report

REM GENRE Rock
REM DATE 2005
REM DISCID 88093A0B
REM COMMENT “ExactAudioCopy v0.99pb4”
PERFORMER “Sublime”
TITLE “Greatest Hits”
FILE “Sublime\Sublime – Greatest Hits\01 – What I Got.wav” WAVE
TRACK 01 AUDIO
TITLE “What I Got”
PERFORMER “Sublime”
ISRC H2>319649251
INDEX 01 00:00:00
FILE “Sublime\Sublime – Greatest Hits\02 – Wrong Way.wav” WAVE
TRACK 02 AUDIO
TITLE “Wrong Way”
PERFORMER “Sublime”
ISRC H2>319649249
INDEX 01 00:00:00
FILE “Sublime\Sublime – Greatest Hits\03 – Santeria.wav” WAVE
TRACK 03 AUDIO
TITLE “Santeria”
PERFORMER “Sublime”
ISRC H2>319649253
INDEX 01 00:00:00
FILE “Sublime\Sublime – Greatest Hits\04 – 40 oz. to Freedom.wav” WAVE
TRACK 04 AUDIO
TITLE “40 oz. to Freedom”
PERFORMER “Sublime”
ISRC H2>319544445
INDEX 01 00:00:00
FILE “Sublime\Sublime – Greatest Hits\05 – Smoke Two Joints.wav” WAVE
TRACK 05 AUDIO
TITLE “Smoke Two Joints”
PERFORMER “Sublime”
ISRC H2>319244446
INDEX 01 00:00:00
FILE “Sublime\Sublime – Greatest Hits\06 – Date Rape.wav” WAVE
TRACK 06 AUDIO
TITLE “Date Rape”
PERFORMER “Sublime”
ISRC H2De19544461
INDEX 01 00:00:00
FILE “Sublime\Sublime – Greatest Hits\07 – Saw Red.wav” WAVE
TRACK 07 AUDIO
TITLE “Saw Red”
PERFORMER “Sublime”
ISRC H2>319444474
INDEX 01 00:00:00
FILE “Sublime\Sublime – Greatest Hits\08 – Badfish.wav” WAVE
TRACK 08 AUDIO
TITLE “Badfish”
PERFORMER “Sublime”
ISRC H2>319544450
INDEX 01 00:00:00
TRACK 09 AUDIO
TITLE “Doin’ Time”
PERFORMER “Sublime”
ISRC H2>319649248
INDEX 00 03:07:02
FILE “Sublime\Sublime – Greatest Hits\09 – Doin’ Time.wav” WAVE
INDEX 01 00:00:00
FILE “Sublime\Sublime – Greatest Hits\10 – Poolshark.wav” WAVE
TRACK 10 AUDIO
TITLE “Poolshark”
PERFORMER “Sublime”
ISRC H2>319544469
INDEX 01 00:00:00
TRACK 11 MODEx/2xxx
TITLE “What I Got Video & Wrong Way Video”
PERFORMER “Sublime”
INDEX 00 00:57:30


Leave a Reply

Your email address will not be published. Required fields are marked *

Enter the text from the image below
 

This site uses Akismet to reduce spam. Learn how your comment data is processed.