Sublime – Gold




Sublime – GreenSeries: The Best of Sublime

Artist: Sublime
Year: 2005
Genre: Ska
Notes: Discogs
Add. Notes:
Watch Songs on: YouTube
Cover incl.: Yes
Encoder: FLAC
Bitrate: ~900 kBit/s (44.1 kHz/16 Bit/s)
Log & Cue incl.: Yes
Size: 943 MB
Password: “slam” (without ” “)


All Downloads/Hosters are compatible

Download 1
KatFile.com
Turbobit.net
Rapidgator.net
FileFactory.com
Download 2
KatFile.com
Turbobit.net
Rapidgator.net
FileFactory.com

Tracklist:

1-1 - Don't Push - 3:54
1-2 - Slow Ride - 4:22
1-3 - Had A Dat - 3:29
1-4 - D.J.'s - 3:18
1-5 - Let's Go Get Stoned - 3:33
1-6 - Badfish - 3:04
1-7 - Waiting For My Ruca - 2:21
1-8 - 40 Oz. To Freedom - 3:03
1-9 - Smoke Two Joints - 2:54
1-10 - We're Only Gonna Die For Our 
Own Arrogance - 
3:07
1-11 - 5446 That's My Number / Ball 
And Chain - 5:18
1-12 - Scarlet Begonias - 3:32
1-13 - Chica Me Tipo - 2:16
1-14 - Right Back - 2:49
1-15 - Date Rape - 3:37
1-16 - KRS-One - 2:24
1-17 - Rivers Of Babylon - 2:28
1-18 - Steady B Loop Dub - 1:26
1-19 - Pool Shark - 1:00
1-20 - Steppin' Razor - 2:25
1-21 - Greatest Hits - 2:54
1-22 - Free Loop Dub - 3:09
2-1 - Saw Red - 1:58
2-2 - Work That We Do - 2:32
2-3 - Cisco Kid - 4:38
2-4 - STP - 2:58
2-5 - Boss D.J. - 2:51
2-6 - I Don't CareToo Much For 
Reggae Dub - 5:20
2-7 - All You Need - 2:46
2-8 - Garden Grove - 4:21
2-9 - What I Got - 2:51
2-10 - Wrong Way - 2:16
2-11 - Same In The End - 2:37
2-12 - April 29, 1992 (Miami) - 3:53
2-13 - Santeria - 3:03
2-14 - Seed - 2:10
2-15 - Jailhouse - 4:53
2-16 - Pawn Shop - 6:06
2-17 - Under My Voodoo - 3:26
2-18 - Get Ready - 4:51
2-19 - Caress Me Down - 3:30
2-20 - What I Got (Reprise) - 3:02
2-21 - Doin' Time - 4:12
2-22 - Trenchtown Rock - 1:42

EAC-Log, CUE-Sheed & NFO:

Click to open spoiler
Exact Audio Copy V0.99 prebeta 3 from 28. July 2007

EAC extraction logfile from 21. November 2007, 0:09

Sublime / Gold (disc 1)

Used drive : BENQ DVD DD DW1625 Adapter: 1 ID: 0

Read mode : Secure
Utilize accurate stream : Yes
Defeat audio cache : Yes
Make use of C2 pointers : No

Read offset correction : 618
Overread into Lead-In and Lead-Out : No
Fill up missing offset samples with silence : Yes
Delete leading and trailing silent blocks : No
Null samples used in CRC calculations : No
Used interface : Installed external ASPI interface
Gap handling : Not detected, thus appended to previous track

Used output format : User Defined Encoder
Selected bitrate : 192 kBit/s
Quality : High
Add ID3 tag : No
Command line compressor : C:\Program Files (x86)\Exact Audio Copy\flac.exe
Additional command line options : -8 -A tukey(0.25) -A gauss(0.1875) -b 4096 -V -T “artist=%a” -T “title=%t” -T “album=%g” -T “date=%y” -T “tracknumber=%n” -T “genre=%m” %s –sector-align

TOC of the extracted CD

Track | Start | Length | Start sector | End sector
———————————————————
1 | 0:00.00 | 3:53.55 | 0 | 17529
2 | 3:53.55 | 4:22.13 | 17530 | 37192
3 | 8:15.68 | 3:29.10 | 37193 | 52877
4 | 11:45.03 | 3:18.12 | 52878 | 67739
5 | 15:03.15 | 3:32.67 | 67740 | 83706
6 | 18:36.07 | 3:04.32 | 83707 | 97538
7 | 21:40.39 | 2:21.04 | 97539 | 108117
8 | 24:01.43 | 3:03.02 | 108118 | 121844
9 | 27:04.45 | 2:54.10 | 121845 | 134904
10 | 29:58.55 | 3:07.05 | 134905 | 148934
11 | 33:05.60 | 5:17.58 | 148935 | 172767
12 | 38:23.43 | 3:31.42 | 172768 | 188634
13 | 41:55.10 | 2:16.36 | 188635 | 198870
14 | 44:11.46 | 2:49.01 | 198871 | 211546
15 | 47:00.47 | 3:36.55 | 211547 | 227801
16 | 50:37.27 | 2:23.65 | 227802 | 238591
17 | 53:01.17 | 2:28.29 | 238592 | 249720
18 | 55:29.46 | 1:26.23 | 249721 | 256193
19 | 56:55.69 | 0:59.40 | 256194 | 260658
20 | 57:55.34 | 2:24.56 | 260659 | 271514
21 | 60:20.15 | 2:53.53 | 271515 | 284542
22 | 63:13.68 | 3:08.65 | 284543 | 298707

Track 1

Filename C:\Documents and Settings\Administrator\Desktop\Scene\Sublime – Gold 2CD\CD1\01 – Don’t Push.wav

Peak level 99.8 %
Track quality 100.0 %
Test CRC 2AE4A332
Copy CRC 2AE4A332
Accurately ripped (confidence 8) [999B50E1]
Copy OK

Track 2

Filename C:\Documents and Settings\Administrator\Desktop\Scene\Sublime – Gold 2CD\CD1\02 – Slow Ride.wav

Peak level 99.8 %
Track quality 100.0 %
Test CRC E1FB072D
Copy CRC E1FB072D
Accurately ripped (confidence 8) [597238C0]
Copy OK

Track 3

Filename C:\Documents and Settings\Administrator\Desktop\Scene\Sublime – Gold 2CD\CD1\03 – Had a Dat.wav

Peak level 99.8 %
Track quality 100.0 %
Test CRC 1EB0D185
Copy CRC 1EB0D185
Accurately ripped (confidence 8) [79305CE6]
Copy OK

Track 4

Filename C:\Documents and Settings\Administrator\Desktop\Scene\Sublime – Gold 2CD\CD1\04 – D.J.’s.wav

Peak level 99.5 %
Track quality 100.0 %
Test CRC 49C72341
Copy CRC 49C72341
Accurately ripped (confidence 8) [9F81C0E1]
Copy OK

Track 5

Filename C:\Documents and Settings\Administrator\Desktop\Scene\Sublime – Gold 2CD\CD1\05 – Let’s Go Get Stoned.wav

Peak level 100.0 %
Track quality 100.0 %
Test CRC 6D71196D
Copy CRC 6D71196D
Accurately ripped (confidence 8) [B54B0D24]
Copy OK

Track 6

Filename C:\Documents and Settings\Administrator\Desktop\Scene\Sublime – Gold 2CD\CD1\06 – Badfish.wav

Peak level 99.4 %
Track quality 100.0 %
Test CRC 942D4E09
Copy CRC 942D4E09
Accurately ripped (confidence 8) [91C04978]
Copy OK

Track 7

Filename C:\Documents and Settings\Administrator\Desktop\Scene\Sublime – Gold 2CD\CD1\07 – Waiting For My Ruca.wav

Peak level 98.1 %
Track quality 100.0 %
Test CRC F1C8A96C
Copy CRC F1C8A96C
Accurately ripped (confidence 8) [5207B4BB]
Copy OK

Track 8

Filename C:\Documents and Settings\Administrator\Desktop\Scene\Sublime – Gold 2CD\CD1\08 – 40 OZ To Freedom.wav

Peak level 99.2 %
Track quality 100.0 %
Test CRC 9E3192D2
Copy CRC 9E3192D2
Accurately ripped (confidence 8) [6CD373D7]
Copy OK

Track 9

Filename C:\Documents and Settings\Administrator\Desktop\Scene\Sublime – Gold 2CD\CD1\09 – Smoke Two Joints.wav

Peak level 98.9 %
Track quality 100.0 %
Test CRC F6E11E21
Copy CRC F6E11E21
Accurately ripped (confidence 8) [9FE7623E]
Copy OK

Track 10

Filename C:\Documents and Settings\Administrator\Desktop\Scene\Sublime – Gold 2CD\CD1\10 – We’re Only Gonna Die For Our Own Arrogance.wav

Peak level 100.0 %
Track quality 100.0 %
Test CRC AF97F9C4
Copy CRC AF97F9C4
Accurately ripped (confidence 8) [A34857E0]
Copy OK

Track 11

Filename C:\Documents and Settings\Administrator\Desktop\Scene\Sublime – Gold 2CD\CD1\11 – 5446 That’s My Number , Ball And Chain.wav

Peak level 100.0 %
Track quality 99.9 %
Test CRC 99AB9C62
Copy CRC 99AB9C62
Accurately ripped (confidence 8) [7DDA3EC8]
Copy OK

Track 12

Filename C:\Documents and Settings\Administrator\Desktop\Scene\Sublime – Gold 2CD\CD1\12 – Scarlet Begonias.wav

Peak level 100.0 %
Track quality 100.0 %
Test CRC 3AF6BBF5
Copy CRC 3AF6BBF5
Accurately ripped (confidence 8) [A1861F6E]
Copy OK

Track 13

Filename C:\Documents and Settings\Administrator\Desktop\Scene\Sublime – Gold 2CD\CD1\13 – Chica Me Tipo.wav

Peak level 100.0 %
Track quality 99.9 %
Test CRC 759B397E
Copy CRC 759B397E
Accurately ripped (confidence 8) [08A2642A]
Copy OK

Track 14

Filename C:\Documents and Settings\Administrator\Desktop\Scene\Sublime – Gold 2CD\CD1\14 – Right Back.wav

Peak level 100.0 %
Track quality 99.9 %
Test CRC 06C10413
Copy CRC 06C10413
Accurately ripped (confidence 8) [CBCA7760]
Copy OK

Track 15

Filename C:\Documents and Settings\Administrator\Desktop\Scene\Sublime – Gold 2CD\CD1\15 – Date Rape.wav

Peak level 99.3 %
Track quality 100.0 %
Test CRC 86B949CD
Copy CRC 86B949CD
Accurately ripped (confidence 8) [D446642D]
Copy OK

Track 16

Filename C:\Documents and Settings\Administrator\Desktop\Scene\Sublime – Gold 2CD\CD1\16 – KRS-One.wav

Peak level 100.0 %
Track quality 100.0 %
Test CRC B8F9DF64
Copy CRC B8F9DF64
Accurately ripped (confidence 8) [2EB5A539]
Copy OK

Track 17

Filename C:\Documents and Settings\Administrator\Desktop\Scene\Sublime – Gold 2CD\CD1\17 – Rivers Of Babylon.wav

Peak level 79.3 %
Track quality 100.0 %
Test CRC 0B1DC0E3
Copy CRC 0B1DC0E3
Accurately ripped (confidence 8) [25ADE350]
Copy OK

Track 18

Filename C:\Documents and Settings\Administrator\Desktop\Scene\Sublime – Gold 2CD\CD1\18 – Steady B Loop Dub.wav

Peak level 98.1 %
Track quality 99.8 %
Test CRC 31C07037
Copy CRC 31C07037
Accurately ripped (confidence 8) [FF505F90]
Copy OK

Track 19

Filename C:\Documents and Settings\Administrator\Desktop\Scene\Sublime – Gold 2CD\CD1\19 – Pool Shark.wav

Peak level 98.9 %
Track quality 100.0 %
Test CRC 03D6F4D5
Copy CRC 03D6F4D5
Accurately ripped (confidence 8) [00F786F4]
Copy OK

Track 20

Filename C:\Documents and Settings\Administrator\Desktop\Scene\Sublime – Gold 2CD\CD1\20 – Steppin’ Razor.wav

Peak level 98.9 %
Track quality 100.0 %
Test CRC B76D2FBE
Copy CRC B76D2FBE
Accurately ripped (confidence 8) [C7B9BD2C]
Copy OK

Track 21

Filename C:\Documents and Settings\Administrator\Desktop\Scene\Sublime – Gold 2CD\CD1\21 – Greatest Hits.wav

Peak level 99.4 %
Track quality 100.0 %
Test CRC D32EFCB8
Copy CRC D32EFCB8
Accurately ripped (confidence 8) [70895379]
Copy OK

Track 22

Filename C:\Documents and Settings\Administrator\Desktop\Scene\Sublime – Gold 2CD\CD1\22 – Free Loop Dub.wav

Peak level 100.0 %
Track quality 100.0 %
Test CRC 915FEB25
Copy CRC 915FEB25
Accurately ripped (confidence 8) [085C9FC7]
Copy OK

All tracks accurately ripped

No errors occurred

End of status report

Exact Audio Copy V0.99 prebeta 3 from 28. July 2007

EAC extraction logfile from 21. November 2007, 1:19

Sublime / Gold (disc 2)

Used drive : BENQ DVD DD DW1625 Adapter: 1 ID: 0

Read mode : Secure
Utilize accurate stream : Yes
Defeat audio cache : Yes
Make use of C2 pointers : No

Read offset correction : 618
Overread into Lead-In and Lead-Out : No
Fill up missing offset samples with silence : Yes
Delete leading and trailing silent blocks : No
Null samples used in CRC calculations : No
Used interface : Installed external ASPI interface
Gap handling : Not detected, thus appended to previous track

Used output format : User Defined Encoder
Selected bitrate : 192 kBit/s
Quality : High
Add ID3 tag : No
Command line compressor : C:\Program Files (x86)\Exact Audio Copy\flac.exe
Additional command line options : -8 -A tukey(0.25) -A gauss(0.1875) -b 4096 -V -T “artist=%a” -T “title=%t” -T “album=%g” -T “date=%y” -T “tracknumber=%n” -T “genre=%m” %s –sector-align

TOC of the extracted CD

Track | Start | Length | Start sector | End sector
———————————————————
1 | 0:00.00 | 1:57.63 | 0 | 8837
2 | 1:57.63 | 2:31.43 | 8838 | 20205
3 | 4:29.31 | 4:38.25 | 20206 | 41080
4 | 9:07.56 | 2:57.72 | 41081 | 54427
5 | 12:05.53 | 2:51.29 | 54428 | 67281
6 | 14:57.07 | 5:20.12 | 67282 | 91293
7 | 20:17.19 | 2:45.64 | 91294 | 103732
8 | 23:03.08 | 4:21.20 | 103733 | 123327
9 | 27:24.28 | 2:51.07 | 123328 | 136159
10 | 30:15.35 | 2:16.27 | 136160 | 146386
11 | 32:31.62 | 2:36.38 | 146387 | 158124
12 | 35:08.25 | 3:53.28 | 158125 | 175627
13 | 39:01.53 | 3:03.15 | 175628 | 189367
14 | 42:04.68 | 2:10.17 | 189368 | 199134
15 | 44:15.10 | 4:53.23 | 199135 | 221132
16 | 49:08.33 | 6:06.05 | 221133 | 248587
17 | 55:14.38 | 3:25.54 | 248588 | 264016
18 | 58:40.17 | 4:50.44 | 264017 | 285810
19 | 63:30.61 | 3:29.53 | 285811 | 301538
20 | 67:00.39 | 3:01.43 | 301539 | 315156
21 | 70:02.07 | 4:11.69 | 315157 | 334050
22 | 74:14.01 | 1:41.56 | 334051 | 341681

Track 1

Filename C:\Documents and Settings\Administrator\Desktop\Scene\Sublime – Gold 2CD\CD2\01 – Saw Red.wav

Peak level 99.5 %
Track quality 100.0 %
Copy CRC 2A6E59AB
Accurately ripped (confidence 8) [D97E73CA]
Copy OK

Track 2

Filename C:\Documents and Settings\Administrator\Desktop\Scene\Sublime – Gold 2CD\CD2\02 – Work That We Do.wav

Peak level 99.1 %
Track quality 100.0 %
Copy CRC 693F4ED8
Accurately ripped (confidence 8) [F6F4A1B8]
Copy OK

Track 3

Filename C:\Documents and Settings\Administrator\Desktop\Scene\Sublime – Gold 2CD\CD2\03 – Cisco Kid.wav

Peak level 99.6 %
Track quality 100.0 %
Copy CRC A6FCCDC1
Accurately ripped (confidence 8) [2B4FE5C7]
Copy OK

Track 4

Filename C:\Documents and Settings\Administrator\Desktop\Scene\Sublime – Gold 2CD\CD2\04 – STP.wav

Peak level 99.5 %
Track quality 99.9 %
Copy CRC 31A0FF92
Accurately ripped (confidence 8) [92205CD1]
Copy OK

Track 5

Filename C:\Documents and Settings\Administrator\Desktop\Scene\Sublime – Gold 2CD\CD2\05 – Boss D.J..wav

Peak level 78.5 %
Track quality 100.0 %
Copy CRC 260365CB
Accurately ripped (confidence 8) [08221153]
Copy OK

Track 6

Filename C:\Documents and Settings\Administrator\Desktop\Scene\Sublime – Gold 2CD\CD2\06 – I Don’t Care Too Much For Reggae Dub.wav

Peak level 88.8 %
Track quality 100.0 %
Copy CRC D8B5AA9E
Accurately ripped (confidence 8) [8290A4C0]
Copy OK

Track 7

Filename C:\Documents and Settings\Administrator\Desktop\Scene\Sublime – Gold 2CD\CD2\07 – All You Need.wav

Peak level 99.5 %
Track quality 100.0 %
Copy CRC 9DE3907B
Accurately ripped (confidence 8) [DF7259A0]
Copy OK

Track 8

Filename C:\Documents and Settings\Administrator\Desktop\Scene\Sublime – Gold 2CD\CD2\08 – Garden Grove.wav

Peak level 100.0 %
Track quality 100.0 %
Copy CRC 1091E92B
Accurately ripped (confidence 8) [E7739904]
Copy OK

Track 9

Filename C:\Documents and Settings\Administrator\Desktop\Scene\Sublime – Gold 2CD\CD2\09 – What I Got.wav

Peak level 100.0 %
Track quality 100.0 %
Copy CRC 5D34EC67
Accurately ripped (confidence 8) [E41645B8]
Copy OK

Track 10

Filename C:\Documents and Settings\Administrator\Desktop\Scene\Sublime – Gold 2CD\CD2\10 – Wrong Way.wav

Peak level 100.0 %
Track quality 100.0 %
Copy CRC 2E4BBE37
Accurately ripped (confidence 8) [64C0B566]
Copy OK

Track 11

Filename C:\Documents and Settings\Administrator\Desktop\Scene\Sublime – Gold 2CD\CD2\11 – Same In The End.wav

Peak level 100.0 %
Track quality 100.0 %
Copy CRC F0B20C1A
Accurately ripped (confidence 8) [E95985A3]
Copy OK

Track 12

Filename C:\Documents and Settings\Administrator\Desktop\Scene\Sublime – Gold 2CD\CD2\12 – April 29, 1992 (Miami).wav

Peak level 100.0 %
Track quality 100.0 %
Copy CRC 4902A2CA
Accurately ripped (confidence 8) [4A750D15]
Copy OK

Track 13

Filename C:\Documents and Settings\Administrator\Desktop\Scene\Sublime – Gold 2CD\CD2\13 – Santeria.wav

Peak level 100.0 %
Track quality 100.0 %
Copy CRC 7FA0B5A6
Accurately ripped (confidence 8) [1D454F6E]
Copy OK

Track 14

Filename C:\Documents and Settings\Administrator\Desktop\Scene\Sublime – Gold 2CD\CD2\14 – Seed.wav

Peak level 100.0 %
Track quality 100.0 %
Copy CRC 68FEA2A2
Accurately ripped (confidence 8) [1FEA3700]
Copy OK

Track 15

Filename C:\Documents and Settings\Administrator\Desktop\Scene\Sublime – Gold 2CD\CD2\15 – Jailhouse.wav

Peak level 100.0 %
Track quality 100.0 %
Copy CRC 264C5527
Accurately ripped (confidence 8) [908BEA74]
Copy OK

Track 16

Filename C:\Documents and Settings\Administrator\Desktop\Scene\Sublime – Gold 2CD\CD2\16 – Pawn Shop.wav

Peak level 100.0 %
Track quality 100.0 %
Copy CRC 2B2BDA76
Accurately ripped (confidence 8) [39DDA079]
Copy OK

Track 17

Filename C:\Documents and Settings\Administrator\Desktop\Scene\Sublime – Gold 2CD\CD2\17 – Under My Voodoo.wav

Peak level 100.0 %
Track quality 100.0 %
Copy CRC 577121FB
Accurately ripped (confidence 8) [6353967E]
Copy OK

Track 18

Filename C:\Documents and Settings\Administrator\Desktop\Scene\Sublime – Gold 2CD\CD2\18 – Get Ready.wav

Peak level 100.0 %
Track quality 100.0 %
Copy CRC 8D4A6774
Accurately ripped (confidence 8) [F22EBE3E]
Copy OK

Track 19

Filename C:\Documents and Settings\Administrator\Desktop\Scene\Sublime – Gold 2CD\CD2\19 – Caress Me Down.wav

Peak level 100.0 %
Track quality 100.0 %
Copy CRC 157EBF96
Accurately ripped (confidence 8) [512D0B1D]
Copy OK

Track 20

Filename C:\Documents and Settings\Administrator\Desktop\Scene\Sublime – Gold 2CD\CD2\20 – What I Got (Reprise).wav

Peak level 100.0 %
Track quality 100.0 %
Copy CRC 3AF2DB77
Accurately ripped (confidence 8) [597BA397]
Copy OK

Track 21

Filename C:\Documents and Settings\Administrator\Desktop\Scene\Sublime – Gold 2CD\CD2\21 – Doin’ Time.wav

Peak level 100.0 %
Track quality 100.0 %
Copy CRC 4D70DF37
Accurately ripped (confidence 8) [A3F59B03]
Copy OK

Track 22

Filename C:\Documents and Settings\Administrator\Desktop\Scene\Sublime – Gold 2CD\CD2\22 – Trenchtown Rock.wav

Peak level 88.1 %
Track quality 100.0 %
Copy CRC FC30E69A
Accurately ripped (confidence 8) [06D50551]
Copy OK

All tracks accurately ripped

No errors occurred

End of status report

#EXTM3U
#EXTINF:234,Sublime – Don’t Push
01 – Don’t Push.flac
#EXTINF:262,Sublime – Slow Ride
02 – Slow Ride.flac
#EXTINF:209,Sublime – Had a Dat
03 – Had a Dat.flac
#EXTINF:198,Sublime – D.J.’s
04 – D.J.’s.flac
#EXTINF:213,Sublime – Let’s Go Get Stoned
05 – Let’s Go Get Stoned.flac
#EXTINF:184,Sublime – Badfish
06 – Badfish.flac
#EXTINF:141,Sublime – Waiting For My Ruca
07 – Waiting For My Ruca.flac
#EXTINF:183,Sublime – 40 OZ To Freedom
08 – 40 OZ To Freedom.flac
#EXTINF:174,Sublime – Smoke Two Joints
09 – Smoke Two Joints.flac
#EXTINF:187,Sublime – We’re Only Gonna Die For Our Own Arrogance
10 – We’re Only Gonna Die For Our Own Arrogance.flac
#EXTINF:318,Sublime – 5446 That’s My Number / Ball And Chain
11 – 5446 That’s My Number , Ball And Chain.flac
#EXTINF:212,Sublime – Scarlet Begonias
12 – Scarlet Begonias.flac
#EXTINF:136,Sublime – Chica Me Tipo
13 – Chica Me Tipo.flac
#EXTINF:169,Sublime – Right Back
14 – Right Back.flac
#EXTINF:217,Sublime – Date Rape
15 – Date Rape.flac
#EXTINF:144,Sublime – KRS-One
16 – KRS-One.flac
#EXTINF:148,Sublime – Rivers Of Babylon
17 – Rivers Of Babylon.flac
#EXTINF:86,Sublime – Steady B Loop Dub
18 – Steady B Loop Dub.flac
#EXTINF:60,Sublime – Pool Shark
19 – Pool Shark.flac
#EXTINF:145,Sublime – Steppin’ Razor
20 – Steppin’ Razor.flac
#EXTINF:174,Sublime – Greatest Hits
21 – Greatest Hits.flac
#EXTINF:189,Sublime – Free Loop Dub
22 – Free Loop Dub.flac

#EXTM3U
#EXTINF:118,Sublime – Saw Red
01 – Saw Red.flac
#EXTINF:152,Sublime – Work That We Do
02 – Work That We Do.flac
#EXTINF:278,Sublime – Cisco Kid
03 – Cisco Kid.flac
#EXTINF:178,Sublime – STP
04 – STP.flac
#EXTINF:171,Sublime – Boss D.J.
05 – Boss D.J..flac
#EXTINF:320,Sublime – I Don’t Care Too Much For Reggae Dub
06 – I Don’t Care Too Much For Reggae Dub.flac
#EXTINF:166,Sublime – All You Need
07 – All You Need.flac
#EXTINF:261,Sublime – Garden Grove
08 – Garden Grove.flac
#EXTINF:171,Sublime – What I Got
09 – What I Got.flac
#EXTINF:136,Sublime – Wrong Way
10 – Wrong Way.flac
#EXTINF:157,Sublime – Same In The End
11 – Same In The End.flac
#EXTINF:233,Sublime – April 29. 1992 (Miami)
12 – April 29, 1992 (Miami).flac
#EXTINF:183,Sublime – Santeria
13 – Santeria.flac
#EXTINF:130,Sublime – Seed
14 – Seed.flac
#EXTINF:293,Sublime – Jailhouse
15 – Jailhouse.flac
#EXTINF:366,Sublime – Pawn Shop
16 – Pawn Shop.flac
#EXTINF:206,Sublime – Under My Voodoo
17 – Under My Voodoo.flac
#EXTINF:291,Sublime – Get Ready
18 – Get Ready.flac
#EXTINF:210,Sublime – Caress Me Down
19 – Caress Me Down.flac
#EXTINF:182,Sublime – What I Got (Reprise)
20 – What I Got (Reprise).flac
#EXTINF:252,Sublime – Doin’ Time
21 – Doin’ Time.flac
#EXTINF:102,Sublime – Trenchtown Rock
22 – Trenchtown Rock.flac


Leave a Reply

Your email address will not be published. Required fields are marked *

Enter the text from the image below
 

This site uses Akismet to reduce spam. Learn how your comment data is processed.