Sublime – Everything Under The Sun




No Cover available

Artist: Sublime
Year: 2006
Genre: Punk
Notes: Discogs
Add. Notes:
Watch Songs on: YouTube
Cover incl.: Yes
Encoder: FLAC
Bitrate: ~900 kBit/s (44.1 kHz/16 Bit/s)
Log & Cue incl.: Yes
Size: 1077 MB
Password: “slam” (without ” “)


All Downloads/Hosters are compatible

Download 1
KatFile.com
Turbobit.net
Rapidgator.net
FileFactory.com
Download 2
KatFile.com
Turbobit.net
Rapidgator.net
FileFactory.com

Tracklist:

Disc 1
CD1-01 - Roots Of Creation (Demo) - 
4:25
CD1-02 - Ebin (O.G. Demo) - 4:12
CD1-03 - Ball And Chain (Demo) - 
3:41
CD1-04 - Date Rape Stylee (Demo) - 
4:07
CD1-05 - Perfect World (Live In 
Studio) - 2:27
CD1-06 - Johnny Too Bad Freestyle 
(Live In Studio) - 
4:57
CD1-07 - Smoke Two Joints (Live In 
Studio) - 4:18
CD1-08 - I'm Not A Loser (Live In 
Studio) - 1:21
CD1-09 - 91 Freestyle (Live) - 3:34
CD1-10 - KXLU Interview - 0:56
CD1-11 - DJ's - 4:22
CD1-12 - Shame In Dem Game 
(Live) - 6:26
CD1-13 - Get Out! (Acoustic) - 1:27
CD1-14 - Angelo (4-Track) - 1:28
CD1-15 - Mic Control (4-Track) - 1:29
CD1-16 - Farther I Go (Studio) - 1:40
CD1-17 - One Cup Of Coffee / Judge 
Not (Studio) - 2:07
CD1-18 - Lou Makes Friends (Live In 
Studio) - 2:32
CD1-19 - Greatest Hits (Live In 
Studio) - 3:34
CD1-20 - Voodoo Part 2 (Original 
Demo) - 2:42
Disc 2
CD2-01 - Youth Are Getting Restless 
(Live On KUCI 
Radio) - 1:34
CD2-02 - Scarlet Begonias (Live On 
KUCI Radio) - 4:06
CD2-03 - Right Back (Live) - 2:54
CD2-04 - New Thrash (Live) - 1:08
CD2-05 - Jailhouse (Live) - 3:07
CD2-06 - Pawn Dub (Live) - 2:50
CD2-07 - STP (Live) - 3:07
CD2-08 - Bad Fish (Live) - 2:55
CD2-09 - House Of Suffering (Live) - 
2:09
CD2-10 - We're Only Gonna Die 
(Live) - 3:20
CD2-11 - Great Stone (Live) - 4:05
CD2-12 - WBCN Interview 1 - 1:15
CD2-13 - Saw Red (Live On Radio) - 
1:40
CD2-14 - Minor Threat (Live On 
Radio) - 2:48
CD2-15 - Legalize It (Dave Aron 
Mix) - 4:19
CD2-16 - 5446 (Live) - 2:21
CD2-17 - All You Need (Ashworth 
Mix) - 2:47
CD2- 18 - Foreman Freestyle (Live In 
Studio) - 4:16
CD2-19 - Prophet (Demo) - 1:58
CD2-20 - Miami (Original Demo) - 
1:53
Disc 3
CD3-01 - Marley Medley (Studio 
Outtake) - 2:16
CD3-02 - Paddle Out (Ruff Mix) - 
1:17
CD3-03 - Caress Me Dub (Outtake) - 
3:30
CD3-04 - Foolish Fool (Unreleased 
Demo) - 3:47
CD3-05 - Westwood One Interview - 
14:07
CD3-06 - 89 Vision - 2:22
CD3-07 - Sweet Little Rosie (Studio 
Outtake) - 4:08
CD3-08 - Garden Grove (Take 2) - 
2:20
CD3-09 - Just Another Day (Studio 
Outtake) - 1:10
CD3-10 - Prince Of Sin (Studio 
Outtake) - 1:40
CD3-11 - I Love My Dog Dub - 4:10
CD3-12 - At It Again - 4:23
CD3-13 - Wrong Way (Acoustic) - 
2:18
CD3-14 - New Realization 
(Acoustic) - 2:42
CD3-15 - Boss DJ (Alternate 
Version) - 2:39
CD3-16 - Real Situation (Acoustic) - 
1:42
CD3-17 - Date Rape (Live) - 3:42
CD3-18 - Soundcheck Jam (Live) - 
2:10
CD3-19 - Doin' Time (Snoop Time 
Remix) - 4:38
CD3-20 - Doin' Time (Tricked Out Life 
Sentence Remix) - 
5:50

EAC-Log, CUE-Sheed & NFO:

Click to open spoiler
Exact Audio Copy V0.99 prebeta 4 from 23. January 2008

EAC extraction logfile from 5. July 2008, 10:52

Sublime / Everything Under The Sun (CD 1)

Used drive : PIONEER DVD-RW DVR-K17RS Adapter: 1 ID: 0

Read mode : Secure
Utilize accurate stream : Yes
Defeat audio cache : Yes
Make use of C2 pointers : No

Read offset correction : 48
Overread into Lead-In and Lead-Out : No
Fill up missing offset samples with silence : Yes
Delete leading and trailing silent blocks : No
Null samples used in CRC calculations : Yes
Used interface : Installed external ASPI interface
Gap handling : Not detected, thus appended to previous track

Used output format : User Defined Encoder
Selected bitrate : 192 kBit/s
Quality : High
Add ID3 tag : No
Command line compressor : C:\Program Files\Exact Audio Copy\Flac\flac.exe
Additional command line options : -V -8 -T “artist=%a” -T “title=%t” -T “album=%g” -T “date=%y” -T “tracknumber=%n” -T “genre=%m” %s

TOC of the extracted CD

Track | Start | Length | Start sector | End sector
———————————————————
1 | 0:00.00 | 4:25.47 | 0 | 19921
2 | 4:25.47 | 4:12.66 | 19922 | 38887
3 | 8:38.38 | 3:41.69 | 38888 | 55531
4 | 12:20.32 | 4:07.39 | 55532 | 74095
5 | 16:27.71 | 2:27.65 | 74096 | 85185
6 | 18:55.61 | 4:57.51 | 85186 | 107511
7 | 23:53.37 | 4:18.40 | 107512 | 126901
8 | 28:12.02 | 1:21.33 | 126902 | 133009
9 | 29:33.35 | 3:34.06 | 133010 | 149065
10 | 33:07.41 | 0:56.25 | 149066 | 153290
11 | 34:03.66 | 4:22.05 | 153291 | 172945
12 | 38:25.71 | 6:26.54 | 172946 | 201949
13 | 44:52.50 | 1:27.34 | 201950 | 208508
14 | 46:20.09 | 1:28.47 | 208509 | 215155
15 | 47:48.56 | 1:29.59 | 215156 | 221889
16 | 49:18.40 | 1:40.53 | 221890 | 229442
17 | 50:59.18 | 2:07.02 | 229443 | 238969
18 | 53:06.20 | 2:32.59 | 238970 | 250428
19 | 55:39.04 | 3:34.54 | 250429 | 266532
20 | 59:13.58 | 2:42.00 | 266533 | 278682

Track 1

Filename C:\Program Files\Exact Audio Copy\Flac\Sublime – 2006 – Everything Under The Sun (CD 1)\01 – Roots of Creation.wav

Peak level 99.6 %
Track quality 99.9 %
Copy CRC 4AC1EA27
Accurately ripped (confidence 4) [30DD2B68]
Copy OK

Track 2

Filename C:\Program Files\Exact Audio Copy\Flac\Sublime – 2006 – Everything Under The Sun (CD 1)\02 – Ebin (O.G.).wav

Peak level 99.8 %
Track quality 100.0 %
Copy CRC FC6B9726
Accurately ripped (confidence 4) [559A47A0]
Copy OK

Track 3

Filename C:\Program Files\Exact Audio Copy\Flac\Sublime – 2006 – Everything Under The Sun (CD 1)\03 – Ball and Chain.wav

Peak level 99.8 %
Track quality 100.0 %
Copy CRC 9D16014B
Accurately ripped (confidence 4) [8FE4F2DB]
Copy OK

Track 4

Filename C:\Program Files\Exact Audio Copy\Flac\Sublime – 2006 – Everything Under The Sun (CD 1)\04 – Date Rape Stylee.wav

Peak level 95.2 %
Track quality 100.0 %
Copy CRC 2F0ECDBB
Accurately ripped (confidence 4) [A1853F84]
Copy OK

Track 5

Filename C:\Program Files\Exact Audio Copy\Flac\Sublime – 2006 – Everything Under The Sun (CD 1)\05 – Perfect World.wav

Peak level 99.5 %
Track quality 100.0 %
Copy CRC CC69D951
Accurately ripped (confidence 4) [0440F01A]
Copy OK

Track 6

Filename C:\Program Files\Exact Audio Copy\Flac\Sublime – 2006 – Everything Under The Sun (CD 1)\06 – Johnny Too Bad Freestyle.wav

Peak level 99.8 %
Track quality 100.0 %
Copy CRC B550D2DE
Accurately ripped (confidence 4) [60B6D63C]
Copy OK

Track 7

Filename C:\Program Files\Exact Audio Copy\Flac\Sublime – 2006 – Everything Under The Sun (CD 1)\07 – Smoke Two Joints.wav

Peak level 99.6 %
Track quality 100.0 %
Copy CRC 66C1EE56
Accurately ripped (confidence 4) [EF624914]
Copy OK

Track 8

Filename C:\Program Files\Exact Audio Copy\Flac\Sublime – 2006 – Everything Under The Sun (CD 1)\08 – I’m Not a Loser.wav

Peak level 99.5 %
Track quality 100.0 %
Copy CRC 846F37E8
Accurately ripped (confidence 4) [F74667DC]
Copy OK

Track 9

Filename C:\Program Files\Exact Audio Copy\Flac\Sublime – 2006 – Everything Under The Sun (CD 1)\09 – ’91 Freestyle.wav

Peak level 98.9 %
Track quality 100.0 %
Copy CRC 12413171
Accurately ripped (confidence 4) [39B31A82]
Copy OK

Track 10

Filename C:\Program Files\Exact Audio Copy\Flac\Sublime – 2006 – Everything Under The Sun (CD 1)\10 – KXLU Interview.wav

Peak level 50.2 %
Track quality 100.0 %
Copy CRC 045DC1A3
Accurately ripped (confidence 4) [89C8B844]
Copy OK

Track 11

Filename C:\Program Files\Exact Audio Copy\Flac\Sublime – 2006 – Everything Under The Sun (CD 1)\11 – Dj’s.wav

Peak level 95.6 %
Track quality 100.0 %
Copy CRC 2178E903
Accurately ripped (confidence 4) [4DBE4D86]
Copy OK

Track 12

Filename C:\Program Files\Exact Audio Copy\Flac\Sublime – 2006 – Everything Under The Sun (CD 1)\12 – Shame In Dem Game (Feat. HR).wav

Peak level 98.6 %
Track quality 100.0 %
Copy CRC 3A6084B9
Accurately ripped (confidence 4) [4E206726]
Copy OK

Track 13

Filename C:\Program Files\Exact Audio Copy\Flac\Sublime – 2006 – Everything Under The Sun (CD 1)\13 – Get Out! (Acoustic).wav

Peak level 62.4 %
Track quality 100.0 %
Copy CRC D232C802
Accurately ripped (confidence 4) [B3318C66]
Copy OK

Track 14

Filename C:\Program Files\Exact Audio Copy\Flac\Sublime – 2006 – Everything Under The Sun (CD 1)\14 – Angelo.wav

Peak level 98.1 %
Track quality 100.0 %
Copy CRC D21E9FA3
Accurately ripped (confidence 4) [C46E9EF4]
Copy OK

Track 15

Filename C:\Program Files\Exact Audio Copy\Flac\Sublime – 2006 – Everything Under The Sun (CD 1)\15 – Mic Control.wav

Peak level 97.0 %
Track quality 100.0 %
Copy CRC A28CCA09
Accurately ripped (confidence 4) [A28357CA]
Copy OK

Track 16

Filename C:\Program Files\Exact Audio Copy\Flac\Sublime – 2006 – Everything Under The Sun (CD 1)\16 – Farther I Go.wav

Peak level 77.3 %
Track quality 100.0 %
Copy CRC 5EAA83AF
Accurately ripped (confidence 4) [11E4CB98]
Copy OK

Track 17

Filename C:\Program Files\Exact Audio Copy\Flac\Sublime – 2006 – Everything Under The Sun (CD 1)\17 – One Cup Of Coffee,Judge Not.wav

Peak level 98.4 %
Track quality 100.0 %
Copy CRC E755E4E4
Accurately ripped (confidence 4) [76C19BF9]
Copy OK

Track 18

Filename C:\Program Files\Exact Audio Copy\Flac\Sublime – 2006 – Everything Under The Sun (CD 1)\18 – Lou Makes Friends.wav

Peak level 98.9 %
Track quality 100.0 %
Copy CRC 89B317B8
Accurately ripped (confidence 4) [025B214F]
Copy OK

Track 19

Filename C:\Program Files\Exact Audio Copy\Flac\Sublime – 2006 – Everything Under The Sun (CD 1)\19 – Greatest Hits.wav

Peak level 99.0 %
Track quality 100.0 %
Copy CRC 58C35A40
Accurately ripped (confidence 4) [1D05215E]
Copy OK

Track 20

Filename C:\Program Files\Exact Audio Copy\Flac\Sublime – 2006 – Everything Under The Sun (CD 1)\20 – Voodoo (Part 2).wav

Peak level 98.9 %
Track quality 100.0 %
Copy CRC 3EA10112
Accurately ripped (confidence 4) [07909BBD]
Copy OK

All tracks accurately ripped

No errors occurred

End of status report

————————————————————

Exact Audio Copy V0.99 prebeta 4 from 23. January 2008

EAC extraction logfile from 5. July 2008, 10:53

Sublime / Everything Under The Sun (CD 1)

Used drive : PIONEER DVD-RW DVR-K17RS Adapter: 1 ID: 0

Read mode : Secure
Utilize accurate stream : Yes
Defeat audio cache : Yes
Make use of C2 pointers : No

Read offset correction : 48
Overread into Lead-In and Lead-Out : No
Fill up missing offset samples with silence : Yes
Delete leading and trailing silent blocks : No
Null samples used in CRC calculations : Yes
Used interface : Installed external ASPI interface
Gap handling : Not detected, thus appended to previous track

Used output format : User Defined Encoder
Selected bitrate : 192 kBit/s
Quality : High
Add ID3 tag : No
Command line compressor : C:\Program Files\Exact Audio Copy\Flac\flac.exe
Additional command line options : -V -8 -T “artist=%a” -T “title=%t” -T “album=%g” -T “date=%y” -T “tracknumber=%n” -T “genre=%m” %s

TOC of the extracted CD

Track | Start | Length | Start sector | End sector
———————————————————
1 | 0:00.00 | 4:25.47 | 0 | 19921
2 | 4:25.47 | 4:12.66 | 19922 | 38887
3 | 8:38.38 | 3:41.69 | 38888 | 55531
4 | 12:20.32 | 4:07.39 | 55532 | 74095
5 | 16:27.71 | 2:27.65 | 74096 | 85185
6 | 18:55.61 | 4:57.51 | 85186 | 107511
7 | 23:53.37 | 4:18.40 | 107512 | 126901
8 | 28:12.02 | 1:21.33 | 126902 | 133009
9 | 29:33.35 | 3:34.06 | 133010 | 149065
10 | 33:07.41 | 0:56.25 | 149066 | 153290
11 | 34:03.66 | 4:22.05 | 153291 | 172945
12 | 38:25.71 | 6:26.54 | 172946 | 201949
13 | 44:52.50 | 1:27.34 | 201950 | 208508
14 | 46:20.09 | 1:28.47 | 208509 | 215155
15 | 47:48.56 | 1:29.59 | 215156 | 221889
16 | 49:18.40 | 1:40.53 | 221890 | 229442
17 | 50:59.18 | 2:07.02 | 229443 | 238969
18 | 53:06.20 | 2:32.59 | 238970 | 250428
19 | 55:39.04 | 3:34.54 | 250429 | 266532
20 | 59:13.58 | 2:42.00 | 266533 | 278682

Track 1

Filename C:\Program Files\Exact Audio Copy\Flac\Sublime – 2006 – Everything Under The Sun (CD 1)\01 – Roots of Creation.wav

Peak level 99.6 %
Track quality 99.9 %
Copy CRC 4AC1EA27
Accurately ripped (confidence 4) [30DD2B68]
Copy OK

Track 2

Filename C:\Program Files\Exact Audio Copy\Flac\Sublime – 2006 – Everything Under The Sun (CD 1)\02 – Ebin (O.G.).wav

Peak level 99.8 %
Track quality 100.0 %
Copy CRC FC6B9726
Accurately ripped (confidence 4) [559A47A0]
Copy OK

Track 3

Filename C:\Program Files\Exact Audio Copy\Flac\Sublime – 2006 – Everything Under The Sun (CD 1)\03 – Ball and Chain.wav

Peak level 99.8 %
Track quality 100.0 %
Copy CRC 9D16014B
Accurately ripped (confidence 4) [8FE4F2DB]
Copy OK

Track 4

Filename C:\Program Files\Exact Audio Copy\Flac\Sublime – 2006 – Everything Under The Sun (CD 1)\04 – Date Rape Stylee.wav

Peak level 95.2 %
Track quality 100.0 %
Copy CRC 2F0ECDBB
Accurately ripped (confidence 4) [A1853F84]
Copy OK

Track 5

Filename C:\Program Files\Exact Audio Copy\Flac\Sublime – 2006 – Everything Under The Sun (CD 1)\05 – Perfect World.wav

Peak level 99.5 %
Track quality 100.0 %
Copy CRC CC69D951
Accurately ripped (confidence 4) [0440F01A]
Copy OK

Track 6

Filename C:\Program Files\Exact Audio Copy\Flac\Sublime – 2006 – Everything Under The Sun (CD 1)\06 – Johnny Too Bad Freestyle.wav

Peak level 99.8 %
Track quality 100.0 %
Copy CRC B550D2DE
Accurately ripped (confidence 4) [60B6D63C]
Copy OK

Track 7

Filename C:\Program Files\Exact Audio Copy\Flac\Sublime – 2006 – Everything Under The Sun (CD 1)\07 – Smoke Two Joints.wav

Peak level 99.6 %
Track quality 100.0 %
Copy CRC 66C1EE56
Accurately ripped (confidence 4) [EF624914]
Copy OK

Track 8

Filename C:\Program Files\Exact Audio Copy\Flac\Sublime – 2006 – Everything Under The Sun (CD 1)\08 – I’m Not a Loser.wav

Peak level 99.5 %
Track quality 100.0 %
Copy CRC 846F37E8
Accurately ripped (confidence 4) [F74667DC]
Copy OK

Track 9

Filename C:\Program Files\Exact Audio Copy\Flac\Sublime – 2006 – Everything Under The Sun (CD 1)\09 – ’91 Freestyle.wav

Peak level 98.9 %
Track quality 100.0 %
Copy CRC 12413171
Accurately ripped (confidence 4) [39B31A82]
Copy OK

Track 10

Filename C:\Program Files\Exact Audio Copy\Flac\Sublime – 2006 – Everything Under The Sun (CD 1)\10 – KXLU Interview.wav

Peak level 50.2 %
Track quality 100.0 %
Copy CRC 045DC1A3
Accurately ripped (confidence 4) [89C8B844]
Copy OK

Track 11

Filename C:\Program Files\Exact Audio Copy\Flac\Sublime – 2006 – Everything Under The Sun (CD 1)\11 – Dj’s.wav

Peak level 95.6 %
Track quality 100.0 %
Copy CRC 2178E903
Accurately ripped (confidence 4) [4DBE4D86]
Copy OK

Track 12

Filename C:\Program Files\Exact Audio Copy\Flac\Sublime – 2006 – Everything Under The Sun (CD 1)\12 – Shame In Dem Game (Feat. HR).wav

Peak level 98.6 %
Track quality 100.0 %
Copy CRC 3A6084B9
Accurately ripped (confidence 4) [4E206726]
Copy OK

Track 13

Filename C:\Program Files\Exact Audio Copy\Flac\Sublime – 2006 – Everything Under The Sun (CD 1)\13 – Get Out! (Acoustic).wav

Peak level 62.4 %
Track quality 100.0 %
Copy CRC D232C802
Accurately ripped (confidence 4) [B3318C66]
Copy OK

Track 14

Filename C:\Program Files\Exact Audio Copy\Flac\Sublime – 2006 – Everything Under The Sun (CD 1)\14 – Angelo.wav

Peak level 98.1 %
Track quality 100.0 %
Copy CRC D21E9FA3
Accurately ripped (confidence 4) [C46E9EF4]
Copy OK

Track 15

Filename C:\Program Files\Exact Audio Copy\Flac\Sublime – 2006 – Everything Under The Sun (CD 1)\15 – Mic Control.wav

Peak level 97.0 %
Track quality 100.0 %
Copy CRC A28CCA09
Accurately ripped (confidence 4) [A28357CA]
Copy OK

Track 16

Filename C:\Program Files\Exact Audio Copy\Flac\Sublime – 2006 – Everything Under The Sun (CD 1)\16 – Farther I Go.wav

Peak level 77.3 %
Track quality 100.0 %
Copy CRC 5EAA83AF
Accurately ripped (confidence 4) [11E4CB98]
Copy OK

Track 17

Filename C:\Program Files\Exact Audio Copy\Flac\Sublime – 2006 – Everything Under The Sun (CD 1)\17 – One Cup Of Coffee,Judge Not.wav

Peak level 98.4 %
Track quality 100.0 %
Copy CRC E755E4E4
Accurately ripped (confidence 4) [76C19BF9]
Copy OK

Track 18

Filename C:\Program Files\Exact Audio Copy\Flac\Sublime – 2006 – Everything Under The Sun (CD 1)\18 – Lou Makes Friends.wav

Peak level 98.9 %
Track quality 100.0 %
Copy CRC 89B317B8
Accurately ripped (confidence 4) [025B214F]
Copy OK

Track 19

Filename C:\Program Files\Exact Audio Copy\Flac\Sublime – 2006 – Everything Under The Sun (CD 1)\19 – Greatest Hits.wav

Peak level 99.0 %
Track quality 100.0 %
Copy CRC 58C35A40
Accurately ripped (confidence 4) [1D05215E]
Copy OK

Track 20

Filename C:\Program Files\Exact Audio Copy\Flac\Sublime – 2006 – Everything Under The Sun (CD 1)\20 – Voodoo (Part 2).wav

Peak level 98.9 %
Track quality 100.0 %
Copy CRC 3EA10112
Accurately ripped (confidence 4) [07909BBD]
Copy OK

All tracks accurately ripped

No errors occurred

End of status report

Exact Audio Copy V0.99 prebeta 4 from 23. January 2008

EAC extraction logfile from 5. July 2008, 11:12

Sublime / Everything Under The Sun (CD 2)

Used drive : PIONEER DVD-RW DVR-K17RS Adapter: 1 ID: 0

Read mode : Secure
Utilize accurate stream : Yes
Defeat audio cache : Yes
Make use of C2 pointers : No

Read offset correction : 48
Overread into Lead-In and Lead-Out : No
Fill up missing offset samples with silence : Yes
Delete leading and trailing silent blocks : No
Null samples used in CRC calculations : Yes
Used interface : Installed external ASPI interface
Gap handling : Appended to previous track

Used output format : User Defined Encoder
Selected bitrate : 192 kBit/s
Quality : High
Add ID3 tag : No
Command line compressor : C:\Program Files\Exact Audio Copy\Flac\flac.exe
Additional command line options : -V -8 -T “artist=%a” -T “title=%t” -T “album=%g” -T “date=%y” -T “tracknumber=%n” -T “genre=%m” %s

TOC of the extracted CD

Track | Start | Length | Start sector | End sector
———————————————————
1 | 0:00.00 | 1:34.41 | 0 | 7090
2 | 1:34.41 | 4:06.61 | 7091 | 25601
3 | 5:41.27 | 2:54.31 | 25602 | 38682
4 | 8:35.58 | 1:08.70 | 38683 | 43852
5 | 9:44.53 | 3:07.23 | 43853 | 57900
6 | 12:52.01 | 2:50.46 | 57901 | 70696
7 | 15:42.47 | 3:07.74 | 70697 | 84795
8 | 18:50.46 | 2:55.72 | 84796 | 97992
9 | 21:46.43 | 2:09.34 | 97993 | 107701
10 | 23:56.02 | 3:20.49 | 107702 | 122750
11 | 27:16.51 | 4:05.69 | 122751 | 141194
12 | 31:22.45 | 1:15.04 | 141195 | 146823
13 | 32:37.49 | 1:40.23 | 146824 | 154346
14 | 34:17.72 | 2:48.22 | 154347 | 166968
15 | 37:06.19 | 4:19.62 | 166969 | 186455
16 | 41:26.06 | 2:21.31 | 186456 | 197061
17 | 43:47.37 | 2:47.38 | 197062 | 209624
18 | 46:35.00 | 4:16.42 | 209625 | 228866
19 | 50:51.42 | 1:58.61 | 228867 | 237777
20 | 52:50.28 | 1:53.69 | 237778 | 246321

Track 1

Filename C:\Program Files\Exact Audio Copy\Flac\Sublime – 2006 – Everything Under The Sun (CD 2)\01 – Youth Are Getting Restless.wav

Pre-gap length 0:00:02.00

Peak level 99.8 %
Track quality 100.0 %
Copy CRC C6F89639
Accurately ripped (confidence 4) [7CC5955B]
Copy OK

Track 2

Filename C:\Program Files\Exact Audio Copy\Flac\Sublime – 2006 – Everything Under The Sun (CD 2)\02 – Scarlet Begonias.wav

Peak level 99.7 %
Track quality 100.0 %
Copy CRC C6AAC003
Accurately ripped (confidence 4) [E86B294E]
Copy OK

Track 3

Filename C:\Program Files\Exact Audio Copy\Flac\Sublime – 2006 – Everything Under The Sun (CD 2)\03 – Right Back.wav

Peak level 99.8 %
Track quality 100.0 %
Copy CRC 1C9E168F
Accurately ripped (confidence 4) [9F1F9E5D]
Copy OK

Track 4

Filename C:\Program Files\Exact Audio Copy\Flac\Sublime – 2006 – Everything Under The Sun (CD 2)\04 – New Thrash.wav

Peak level 99.8 %
Track quality 100.0 %
Copy CRC C03BFBCC
Accurately ripped (confidence 4) [D9F1CD17]
Copy OK

Track 5

Filename C:\Program Files\Exact Audio Copy\Flac\Sublime – 2006 – Everything Under The Sun (CD 2)\05 – Jailhouse.wav

Peak level 99.8 %
Track quality 99.9 %
Copy CRC 5780A5EA
Accurately ripped (confidence 4) [703EBAC4]
Copy OK

Track 6

Filename C:\Program Files\Exact Audio Copy\Flac\Sublime – 2006 – Everything Under The Sun (CD 2)\06 – Pawn Dub.wav

Pre-gap length 0:00:01.06

Peak level 99.7 %
Track quality 100.0 %
Copy CRC A3F79F14
Accurately ripped (confidence 4) [39112738]
Copy OK

Track 7

Filename C:\Program Files\Exact Audio Copy\Flac\Sublime – 2006 – Everything Under The Sun (CD 2)\07 – STP.wav

Peak level 99.8 %
Track quality 100.0 %
Copy CRC 76BEDC31
Accurately ripped (confidence 4) [22F44695]
Copy OK

Track 8

Filename C:\Program Files\Exact Audio Copy\Flac\Sublime – 2006 – Everything Under The Sun (CD 2)\08 – Badfish.wav

Peak level 89.9 %
Track quality 99.9 %
Copy CRC 5D3BFE33
Accurately ripped (confidence 4) [911F88A4]
Copy OK

Track 9

Filename C:\Program Files\Exact Audio Copy\Flac\Sublime – 2006 – Everything Under The Sun (CD 2)\09 – House Of Suffering.wav

Pre-gap length 0:00:02.00

Peak level 99.8 %
Track quality 100.0 %
Copy CRC 19F9BDB2
Accurately ripped (confidence 4) [30BA239B]
Copy OK

Track 10

Filename C:\Program Files\Exact Audio Copy\Flac\Sublime – 2006 – Everything Under The Sun (CD 2)\10 – We’re Only Gonna Die.wav

Pre-gap length 0:00:01.32

Peak level 99.0 %
Track quality 100.0 %
Copy CRC 0EF12B8D
Accurately ripped (confidence 4) [CE07E112]
Copy OK

Track 11

Filename C:\Program Files\Exact Audio Copy\Flac\Sublime – 2006 – Everything Under The Sun (CD 2)\11 – Great Stone.wav

Pre-gap length 0:00:01.53

Peak level 94.9 %
Track quality 100.0 %
Copy CRC 5C8B35E0
Accurately ripped (confidence 4) [51E8DA90]
Copy OK

Track 12

Filename C:\Program Files\Exact Audio Copy\Flac\Sublime – 2006 – Everything Under The Sun (CD 2)\12 – WBCN Interview 1.wav

Peak level 43.9 %
Track quality 99.8 %
Copy CRC 8A262814
Accurately ripped (confidence 4) [9DE93E83]
Copy OK

Track 13

Filename C:\Program Files\Exact Audio Copy\Flac\Sublime – 2006 – Everything Under The Sun (CD 2)\13 – Saw Red.wav

Peak level 92.0 %
Track quality 100.0 %
Copy CRC 708C4F44
Accurately ripped (confidence 4) [D3C5CFA9]
Copy OK

Track 14

Filename C:\Program Files\Exact Audio Copy\Flac\Sublime – 2006 – Everything Under The Sun (CD 2)\14 – WBCN Interview 2 , Minor Threat.wav

Peak level 91.1 %
Track quality 100.0 %
Copy CRC BF1D0D6B
Accurately ripped (confidence 4) [506F575F]
Copy OK

Track 15

Filename C:\Program Files\Exact Audio Copy\Flac\Sublime – 2006 – Everything Under The Sun (CD 2)\15 – Legalize It (Dave Aron Mix).wav

Pre-gap length 0:00:01.09

Peak level 99.8 %
Track quality 100.0 %
Copy CRC 002D0EF0
Accurately ripped (confidence 4) [FE3C5E42]
Copy OK

Track 16

Filename C:\Program Files\Exact Audio Copy\Flac\Sublime – 2006 – Everything Under The Sun (CD 2)\16 – 5446.wav

Pre-gap length 0:00:01.02

Peak level 99.7 %
Track quality 100.0 %
Copy CRC E8D5AC59
Accurately ripped (confidence 4) [03C5E4F1]
Copy OK

Track 17

Filename C:\Program Files\Exact Audio Copy\Flac\Sublime – 2006 – Everything Under The Sun (CD 2)\17 – All You Need (Ashworth Mix).wav

Peak level 99.7 %
Track quality 100.0 %
Copy CRC 692786F2
Accurately ripped (confidence 4) [CE65AFAE]
Copy OK

Track 18

Filename C:\Program Files\Exact Audio Copy\Flac\Sublime – 2006 – Everything Under The Sun (CD 2)\18 – Forman Freestyle.wav

Pre-gap length 0:00:01.74

Peak level 99.7 %
Track quality 100.0 %
Copy CRC B3D83471
Accurately ripped (confidence 4) [5B17AFFE]
Copy OK

Track 19

Filename C:\Program Files\Exact Audio Copy\Flac\Sublime – 2006 – Everything Under The Sun (CD 2)\19 – Prophet.wav

Peak level 99.8 %
Track quality 100.0 %
Copy CRC F07C37D4
Accurately ripped (confidence 4) [56C0DF35]
Copy OK

Track 20

Filename C:\Program Files\Exact Audio Copy\Flac\Sublime – 2006 – Everything Under The Sun (CD 2)\20 – Miami.wav

Pre-gap length 0:00:01.80

Peak level 94.9 %
Track quality 99.9 %
Copy CRC 1395AE33
Accurately ripped (confidence 5) [2D780061]
Copy OK

All tracks accurately ripped

No errors occurred

End of status report

Exact Audio Copy V0.99 prebeta 4 from 23. January 2008

EAC extraction logfile from 5. July 2008, 11:52

Sublime / Everything Under The Sun (CD 3)

Used drive : PIONEER DVD-RW DVR-K17RS Adapter: 1 ID: 0

Read mode : Secure
Utilize accurate stream : Yes
Defeat audio cache : Yes
Make use of C2 pointers : No

Read offset correction : 48
Overread into Lead-In and Lead-Out : No
Fill up missing offset samples with silence : Yes
Delete leading and trailing silent blocks : No
Null samples used in CRC calculations : Yes
Used interface : Installed external ASPI interface
Gap handling : Appended to previous track

Used output format : User Defined Encoder
Selected bitrate : 192 kBit/s
Quality : High
Add ID3 tag : No
Command line compressor : C:\Program Files\Exact Audio Copy\Flac\flac.exe
Additional command line options : -V -8 -T “artist=%a” -T “title=%t” -T “album=%g” -T “date=%y” -T “tracknumber=%n” -T “genre=%m” %s

TOC of the extracted CD

Track | Start | Length | Start sector | End sector
———————————————————
1 | 0:00.00 | 2:16.71 | 0 | 10270
2 | 2:16.71 | 1:17.12 | 10271 | 16057
3 | 3:34.08 | 3:30.59 | 16058 | 31866
4 | 7:04.67 | 3:47.21 | 31867 | 48912
5 | 10:52.13 | 14:07.36 | 48913 | 112473
6 | 24:59.49 | 2:22.66 | 112474 | 123189
7 | 27:22.40 | 4:08.29 | 123190 | 141818
8 | 31:30.69 | 2:20.53 | 141819 | 152371
9 | 33:51.47 | 1:10.66 | 152372 | 157687
10 | 35:02.38 | 1:40.34 | 157688 | 165221
11 | 36:42.72 | 4:10.19 | 165222 | 183990
12 | 40:53.16 | 4:23.35 | 183991 | 203750
13 | 45:16.51 | 2:18.36 | 203751 | 214136
14 | 47:35.12 | 2:42.32 | 214137 | 226318
15 | 50:17.44 | 2:39.23 | 226319 | 238266
16 | 52:56.67 | 1:42.29 | 238267 | 245945
17 | 54:39.21 | 3:42.31 | 245946 | 262626
18 | 58:21.52 | 2:10.25 | 262627 | 272401
19 | 60:32.02 | 4:38.54 | 272402 | 293305
20 | 65:10.56 | 5:50.50 | 293306 | 319605

Track 1

Filename C:\Program Files\Exact Audio Copy\Flac\Sublime – 2006 – Everything Under The Sun (CD 3)\01 – Marley Medley.wav

Pre-gap length 0:00:02.00

Peak level 83.7 %
Track quality 100.0 %
Copy CRC 56D05980
Accurately ripped (confidence 4) [C806B5AF]
Copy OK

Track 2

Filename C:\Program Files\Exact Audio Copy\Flac\Sublime – 2006 – Everything Under The Sun (CD 3)\02 – Paddle Out (Ruff Mix).wav

Peak level 89.5 %
Track quality 100.0 %
Copy CRC 9D58BC6D
Accurately ripped (confidence 4) [6FEB6D6E]
Copy OK

Track 3

Filename C:\Program Files\Exact Audio Copy\Flac\Sublime – 2006 – Everything Under The Sun (CD 3)\03 – Caress Me Dub.wav

Pre-gap length 0:00:01.26

Peak level 99.8 %
Track quality 100.0 %
Copy CRC C43833FC
Accurately ripped (confidence 4) [1C83C723]
Copy OK

Track 4

Filename C:\Program Files\Exact Audio Copy\Flac\Sublime – 2006 – Everything Under The Sun (CD 3)\04 – Foolish Fool.wav

Peak level 99.7 %
Track quality 100.0 %
Copy CRC ED2CD1B0
Accurately ripped (confidence 4) [0F98AFF8]
Copy OK

Track 5

Filename C:\Program Files\Exact Audio Copy\Flac\Sublime – 2006 – Everything Under The Sun (CD 3)\05 – Westwood One Interview.wav

Pre-gap length 0:00:01.94

Peak level 89.1 %
Track quality 100.0 %
Copy CRC 95B355FB
Accurately ripped (confidence 4) [3D351D14]
Copy OK

Track 6

Filename C:\Program Files\Exact Audio Copy\Flac\Sublime – 2006 – Everything Under The Sun (CD 3)\06 – 89 Vision.wav

Peak level 99.8 %
Track quality 100.0 %
Copy CRC 5D56A68F
Accurately ripped (confidence 4) [BC621C01]
Copy OK

Track 7

Filename C:\Program Files\Exact Audio Copy\Flac\Sublime – 2006 – Everything Under The Sun (CD 3)\07 – Sweet Little Rosie.wav

Peak level 99.8 %
Track quality 99.9 %
Copy CRC 32E06BE7
Accurately ripped (confidence 4) [B07331B3]
Copy OK

Track 8

Filename C:\Program Files\Exact Audio Copy\Flac\Sublime – 2006 – Everything Under The Sun (CD 3)\08 – Garden Grove (Take 2).wav

Peak level 99.8 %
Track quality 100.0 %
Copy CRC B2C1C40A
Accurately ripped (confidence 4) [32202D98]
Copy OK

Track 9

Filename C:\Program Files\Exact Audio Copy\Flac\Sublime – 2006 – Everything Under The Sun (CD 3)\09 – Just Another Day.wav

Pre-gap length 0:00:01.65

Peak level 99.8 %
Track quality 100.0 %
Copy CRC 6768DD8A
Accurately ripped (confidence 4) [05F28ECD]
Copy OK

Track 10

Filename C:\Program Files\Exact Audio Copy\Flac\Sublime – 2006 – Everything Under The Sun (CD 3)\10 – Prince of Sin.wav

Peak level 99.5 %
Track quality 100.0 %
Copy CRC C2924D27
Accurately ripped (confidence 4) [F3B84827]
Copy OK

Track 11

Filename C:\Program Files\Exact Audio Copy\Flac\Sublime – 2006 – Everything Under The Sun (CD 3)\11 – I Love My Dog Dub.wav

Peak level 99.7 %
Track quality 100.0 %
Copy CRC 750FD73F
Accurately ripped (confidence 4) [F02CDA51]
Copy OK

Track 12

Filename C:\Program Files\Exact Audio Copy\Flac\Sublime – 2006 – Everything Under The Sun (CD 3)\12 – At It Again.wav

Peak level 99.8 %
Track quality 100.0 %
Copy CRC 2669F443
Accurately ripped (confidence 4) [8BCA907C]
Copy OK

Track 13

Filename C:\Program Files\Exact Audio Copy\Flac\Sublime – 2006 – Everything Under The Sun (CD 3)\13 – Wrong Way (Acoustic).wav

Pre-gap length 0:00:02.06

Peak level 98.6 %
Track quality 99.9 %
Copy CRC F1E8FA1D
Accurately ripped (confidence 4) [4D67EC22]
Copy OK

Track 14

Filename C:\Program Files\Exact Audio Copy\Flac\Sublime – 2006 – Everything Under The Sun (CD 3)\14 – New Realization (Acoustic).wav

Pre-gap length 0:00:02.18

Peak level 80.1 %
Track quality 100.0 %
Copy CRC 020F622C
Accurately ripped (confidence 4) [B9BEC7A3]
Copy OK

Track 15

Filename C:\Program Files\Exact Audio Copy\Flac\Sublime – 2006 – Everything Under The Sun (CD 3)\15 – Boss D.J. (Alt Take).wav

Peak level 99.2 %
Track quality 100.0 %
Copy CRC B906843A
Accurately ripped (confidence 4) [813B3C7E]
Copy OK

Track 16

Filename C:\Program Files\Exact Audio Copy\Flac\Sublime – 2006 – Everything Under The Sun (CD 3)\16 – Real Situation.wav

Peak level 83.7 %
Track quality 100.0 %
Copy CRC F67F4797
Accurately ripped (confidence 4) [64121F3A]
Copy OK

Track 17

Filename C:\Program Files\Exact Audio Copy\Flac\Sublime – 2006 – Everything Under The Sun (CD 3)\17 – Date Rape.wav

Peak level 99.7 %
Track quality 100.0 %
Copy CRC 81C9BA05
Accurately ripped (confidence 4) [F451DA95]
Copy OK

Track 18

Filename C:\Program Files\Exact Audio Copy\Flac\Sublime – 2006 – Everything Under The Sun (CD 3)\18 – Soundcheck Jam.wav

Peak level 99.8 %
Track quality 100.0 %
Copy CRC 0E73DB8F
Accurately ripped (confidence 4) [25A84DFF]
Copy OK

Track 19

Filename C:\Program Files\Exact Audio Copy\Flac\Sublime – 2006 – Everything Under The Sun (CD 3)\19 – Doin’ Time (Snoop Time Remix).wav

Pre-gap length 0:00:01.77

Peak level 96.0 %
Track quality 100.0 %
Copy CRC 81DA6FC8
Accurately ripped (confidence 4) [FCBAD62A]
Copy OK

Track 20

Filename C:\Program Files\Exact Audio Copy\Flac\Sublime – 2006 – Everything Under The Sun (CD 3)\20 – Doin’ Time (Tricked Out Life Sentence Remix).wav

Peak level 99.7 %
Track quality 99.9 %
Copy CRC 8B2EF654
Accurately ripped (confidence 4) [0003000E]
Copy OK

All tracks accurately ripped

No errors occurred

End of status report

REM GENRE Reggae
REM DATE 2006
REM DISCID 380E8314
REM COMMENT “ExactAudioCopy v0.99pb4”
PERFORMER “Sublime”
TITLE “Everything Under The Sun (CD 1)”
FILE “Sublime – 2006 – Everything Under The Sun (CD 1)\01 – Roots of Creation.wav” WAVE
TRACK 01 AUDIO
TITLE “Roots of Creation”
PERFORMER “Sublime”
INDEX 01 00:00:00
TRACK 02 AUDIO
TITLE “Ebin (O.G.)”
PERFORMER “Sublime”
INDEX 00 04:24:44
FILE “Sublime – 2006 – Everything Under The Sun (CD 1)\02 – Ebin (O.G.).wav” WAVE
INDEX 01 00:00:00
FILE “Sublime – 2006 – Everything Under The Sun (CD 1)\03 – Ball and Chain.wav” WAVE
TRACK 03 AUDIO
TITLE “Ball and Chain”
PERFORMER “Sublime”
INDEX 01 00:00:00
FILE “Sublime – 2006 – Everything Under The Sun (CD 1)\04 – Date Rape Stylee.wav” WAVE
TRACK 04 AUDIO
TITLE “Date Rape Stylee”
PERFORMER “Sublime”
INDEX 01 00:00:00
FILE “Sublime – 2006 – Everything Under The Sun (CD 1)\05 – Perfect World.wav” WAVE
TRACK 05 AUDIO
TITLE “Perfect World”
PERFORMER “Sublime”
INDEX 01 00:00:00
TRACK 06 AUDIO
TITLE “Johnny Too Bad Freestyle”
PERFORMER “Sublime”
INDEX 00 02:25:11
FILE “Sublime – 2006 – Everything Under The Sun (CD 1)\06 – Johnny Too Bad Freestyle.wav” WAVE
INDEX 01 00:00:00
FILE “Sublime – 2006 – Everything Under The Sun (CD 1)\07 – Smoke Two Joints.wav” WAVE
TRACK 07 AUDIO
TITLE “Smoke Two Joints”
PERFORMER “Sublime”
INDEX 01 00:00:00
TRACK 08 AUDIO
TITLE “I’m Not a Loser”
PERFORMER “Sublime”
INDEX 00 04:16:73
FILE “Sublime – 2006 – Everything Under The Sun (CD 1)\08 – I’m Not a Loser.wav” WAVE
INDEX 01 00:00:00
FILE “Sublime – 2006 – Everything Under The Sun (CD 1)\09 – ’91 Freestyle.wav” WAVE
TRACK 09 AUDIO
TITLE “’91 Freestyle”
PERFORMER “Sublime”
INDEX 01 00:00:00
FILE “Sublime – 2006 – Everything Under The Sun (CD 1)\10 – KXLU Interview.wav” WAVE
TRACK 10 AUDIO
TITLE “KXLU Interview”
PERFORMER “Sublime”
INDEX 01 00:00:00
FILE “Sublime – 2006 – Everything Under The Sun (CD 1)\11 – Dj’s.wav” WAVE
TRACK 11 AUDIO
TITLE “Dj’s”
PERFORMER “Sublime”
INDEX 01 00:00:00
FILE “Sublime – 2006 – Everything Under The Sun (CD 1)\12 – Shame In Dem Game (Feat. HR).wav” WAVE
TRACK 12 AUDIO
TITLE “Shame In Dem Game (Feat. HR)”
PERFORMER “Sublime”
INDEX 01 00:00:00
TRACK 13 AUDIO
TITLE “Get Out! (Acoustic)”
PERFORMER “Sublime”
INDEX 00 06:24:30
FILE “Sublime – 2006 – Everything Under The Sun (CD 1)\13 – Get Out! (Acoustic).wav” WAVE
INDEX 01 00:00:00
TRACK 14 AUDIO
TITLE “Angelo”
PERFORMER “Sublime”
INDEX 00 01:25:41
FILE “Sublime – 2006 – Everything Under The Sun (CD 1)\14 – Angelo.wav” WAVE
INDEX 01 00:00:00
FILE “Sublime – 2006 – Everything Under The Sun (CD 1)\15 – Mic Control.wav” WAVE
TRACK 15 AUDIO
TITLE “Mic Control”
PERFORMER “Sublime”
INDEX 01 00:00:00
FILE “Sublime – 2006 – Everything Under The Sun (CD 1)\16 – Farther I Go.wav” WAVE
TRACK 16 AUDIO
TITLE “Farther I Go”
PERFORMER “Sublime”
INDEX 01 00:00:00
TRACK 17 AUDIO
TITLE “One Cup Of Coffee/Judge Not”
PERFORMER “Sublime”
INDEX 00 01:38:53
FILE “Sublime – 2006 – Everything Under The Sun (CD 1)\17 – One Cup Of Coffee,Judge Not.wav” WAVE
INDEX 01 00:00:00
TRACK 18 AUDIO
TITLE “Lou Makes Friends”
PERFORMER “Sublime”
INDEX 00 02:05:66
FILE “Sublime – 2006 – Everything Under The Sun (CD 1)\18 – Lou Makes Friends.wav” WAVE
INDEX 01 00:00:00
TRACK 19 AUDIO
TITLE “Greatest Hits”
PERFORMER “Sublime”
INDEX 00 02:30:71
FILE “Sublime – 2006 – Everything Under The Sun (CD 1)\19 – Greatest Hits.wav” WAVE
INDEX 01 00:00:00
TRACK 20 AUDIO
TITLE “Voodoo (Part 2)”
PERFORMER “Sublime”
INDEX 00 03:33:31
FILE “Sublime – 2006 – Everything Under The Sun (CD 1)\20 – Voodoo (Part 2).wav” WAVE
INDEX 01 00:00:00

REM GENRE Reggae
REM DATE 2006
REM DISCID 390CD414
REM COMMENT “ExactAudioCopy v0.99pb4”
PERFORMER “Sublime”
TITLE “Everything Under The Sun (CD 2)”
FILE “Sublime – 2006 – Everything Under The Sun (CD 2)\01 – Youth Are Getting Restless.wav” WAVE
TRACK 01 AUDIO
TITLE “Youth Are Getting Restless”
PERFORMER “Sublime”
INDEX 01 00:00:00
FILE “Sublime – 2006 – Everything Under The Sun (CD 2)\02 – Scarlet Begonias.wav” WAVE
TRACK 02 AUDIO
TITLE “Scarlet Begonias”
PERFORMER “Sublime”
INDEX 01 00:00:00
FILE “Sublime – 2006 – Everything Under The Sun (CD 2)\03 – Right Back.wav” WAVE
TRACK 03 AUDIO
TITLE “Right Back”
PERFORMER “Sublime”
INDEX 01 00:00:00
FILE “Sublime – 2006 – Everything Under The Sun (CD 2)\04 – New Thrash.wav” WAVE
TRACK 04 AUDIO
TITLE “New Thrash”
PERFORMER “Sublime”
INDEX 01 00:00:00
FILE “Sublime – 2006 – Everything Under The Sun (CD 2)\05 – Jailhouse.wav” WAVE
TRACK 05 AUDIO
TITLE “Jailhouse”
PERFORMER “Sublime”
INDEX 01 00:00:00
TRACK 06 AUDIO
TITLE “Pawn Dub”
PERFORMER “Sublime”
INDEX 00 03:06:18
FILE “Sublime – 2006 – Everything Under The Sun (CD 2)\06 – Pawn Dub.wav” WAVE
INDEX 01 00:00:00
FILE “Sublime – 2006 – Everything Under The Sun (CD 2)\07 – STP.wav” WAVE
TRACK 07 AUDIO
TITLE “STP”
PERFORMER “Sublime”
INDEX 01 00:00:00
FILE “Sublime – 2006 – Everything Under The Sun (CD 2)\08 – Badfish.wav” WAVE
TRACK 08 AUDIO
TITLE “Badfish”
PERFORMER “Sublime”
INDEX 01 00:00:00
TRACK 09 AUDIO
TITLE “House Of Suffering”
PERFORMER “Sublime”
INDEX 00 02:53:72
FILE “Sublime – 2006 – Everything Under The Sun (CD 2)\09 – House Of Suffering.wav” WAVE
INDEX 01 00:00:00
TRACK 10 AUDIO
TITLE “We’re Only Gonna Die”
PERFORMER “Sublime”
INDEX 00 02:08:10
FILE “Sublime – 2006 – Everything Under The Sun (CD 2)\10 – We’re Only Gonna Die.wav” WAVE
INDEX 01 00:00:00
TRACK 11 AUDIO
TITLE “Great Stone”
PERFORMER “Sublime”
INDEX 00 03:19:09
FILE “Sublime – 2006 – Everything Under The Sun (CD 2)\11 – Great Stone.wav” WAVE
INDEX 01 00:00:00
FILE “Sublime – 2006 – Everything Under The Sun (CD 2)\12 – WBCN Interview 1.wav” WAVE
TRACK 12 AUDIO
TITLE “WBCN Interview 1”
PERFORMER “Sublime”
INDEX 01 00:00:00
FILE “Sublime – 2006 – Everything Under The Sun (CD 2)\13 – Saw Red.wav” WAVE
TRACK 13 AUDIO
TITLE “Saw Red”
PERFORMER “Sublime”
INDEX 01 00:00:00
FILE “Sublime – 2006 – Everything Under The Sun (CD 2)\14 – WBCN Interview 2 , Minor Threat.wav” WAVE
TRACK 14 AUDIO
TITLE “WBCN Interview 2 / Minor Threat”
PERFORMER “Sublime”
INDEX 01 00:00:00
TRACK 15 AUDIO
TITLE “Legalize It (Dave Aron Mix)”
PERFORMER “Sublime”
INDEX 00 02:47:15
FILE “Sublime – 2006 – Everything Under The Sun (CD 2)\15 – Legalize It (Dave Aron Mix).wav” WAVE
INDEX 01 00:00:00
TRACK 16 AUDIO
TITLE “5446”
PERFORMER “Sublime”
INDEX 00 04:18:60
FILE “Sublime – 2006 – Everything Under The Sun (CD 2)\16 – 5446.wav” WAVE
INDEX 01 00:00:00
FILE “Sublime – 2006 – Everything Under The Sun (CD 2)\17 – All You Need (Ashworth Mix).wav” WAVE
TRACK 17 AUDIO
TITLE “All You Need (Ashworth Mix)”
PERFORMER “Sublime”
INDEX 01 00:00:00
TRACK 18 AUDIO
TITLE “Forman Freestyle”
PERFORMER “Sublime”
INDEX 00 02:45:57
FILE “Sublime – 2006 – Everything Under The Sun (CD 2)\18 – Forman Freestyle.wav” WAVE
INDEX 01 00:00:00
FILE “Sublime – 2006 – Everything Under The Sun (CD 2)\19 – Prophet.wav” WAVE
TRACK 19 AUDIO
TITLE “Prophet”
PERFORMER “Sublime”
INDEX 01 00:00:00
TRACK 20 AUDIO
TITLE “Miami”
PERFORMER “Sublime”
INDEX 00 01:57:01
FILE “Sublime – 2006 – Everything Under The Sun (CD 2)\20 – Miami.wav” WAVE
INDEX 01 00:00:00

REM GENRE Reggae
REM DATE 2006
REM DISCID 0410A514
REM COMMENT “ExactAudioCopy v0.99pb4”
PERFORMER “Sublime”
TITLE “Everything Under The Sun (CD 3)”
FILE “Sublime – 2006 – Everything Under The Sun (CD 3)\01 – Marley Medley.wav” WAVE
TRACK 01 AUDIO
TITLE “Marley Medley”
PERFORMER “Sublime”
INDEX 01 00:00:00
FILE “Sublime – 2006 – Everything Under The Sun (CD 3)\02 – Paddle Out (Ruff Mix).wav” WAVE
TRACK 02 AUDIO
TITLE “Paddle Out (Ruff Mix)”
PERFORMER “Sublime”
INDEX 01 00:00:00
TRACK 03 AUDIO
TITLE “Caress Me Dub”
PERFORMER “Sublime”
INDEX 00 01:15:67
FILE “Sublime – 2006 – Everything Under The Sun (CD 3)\03 – Caress Me Dub.wav” WAVE
INDEX 01 00:00:00
FILE “Sublime – 2006 – Everything Under The Sun (CD 3)\04 – Foolish Fool.wav” WAVE
TRACK 04 AUDIO
TITLE “Foolish Fool”
PERFORMER “Sublime”
INDEX 01 00:00:00
TRACK 05 AUDIO
TITLE “Westwood One Interview”
PERFORMER “Sublime”
INDEX 00 03:45:25
FILE “Sublime – 2006 – Everything Under The Sun (CD 3)\05 – Westwood One Interview.wav” WAVE
INDEX 01 00:00:00
FILE “Sublime – 2006 – Everything Under The Sun (CD 3)\06 – 89 Vision.wav” WAVE
TRACK 06 AUDIO
TITLE “89 Vision”
PERFORMER “Sublime”
INDEX 01 00:00:00
FILE “Sublime – 2006 – Everything Under The Sun (CD 3)\07 – Sweet Little Rosie.wav” WAVE
TRACK 07 AUDIO
TITLE “Sweet Little Rosie”
PERFORMER “Sublime”
INDEX 01 00:00:00
FILE “Sublime – 2006 – Everything Under The Sun (CD 3)\08 – Garden Grove (Take 2).wav” WAVE
TRACK 08 AUDIO
TITLE “Garden Grove (Take 2)”
PERFORMER “Sublime”
INDEX 01 00:00:00
TRACK 09 AUDIO
TITLE “Just Another Day”
PERFORMER “Sublime”
INDEX 00 02:19:04
FILE “Sublime – 2006 – Everything Under The Sun (CD 3)\09 – Just Another Day.wav” WAVE
INDEX 01 00:00:00
FILE “Sublime – 2006 – Everything Under The Sun (CD 3)\10 – Prince of Sin.wav” WAVE
TRACK 10 AUDIO
TITLE “Prince of Sin”
PERFORMER “Sublime”
INDEX 01 00:00:00
FILE “Sublime – 2006 – Everything Under The Sun (CD 3)\11 – I Love My Dog Dub.wav” WAVE
TRACK 11 AUDIO
TITLE “I Love My Dog Dub”
PERFORMER “Sublime”
INDEX 01 00:00:00
FILE “Sublime – 2006 – Everything Under The Sun (CD 3)\12 – At It Again.wav” WAVE
TRACK 12 AUDIO
TITLE “At It Again”
PERFORMER “Sublime”
INDEX 01 00:00:00
TRACK 13 AUDIO
TITLE “Wrong Way (Acoustic)”
PERFORMER “Sublime”
INDEX 00 04:21:30
FILE “Sublime – 2006 – Everything Under The Sun (CD 3)\13 – Wrong Way (Acoustic).wav” WAVE
INDEX 01 00:00:00
TRACK 14 AUDIO
TITLE “New Realization (Acoustic)”
PERFORMER “Sublime”
INDEX 00 02:16:22
FILE “Sublime – 2006 – Everything Under The Sun (CD 3)\14 – New Realization (Acoustic).wav” WAVE
INDEX 01 00:00:00
FILE “Sublime – 2006 – Everything Under The Sun (CD 3)\15 – Boss D.J. (Alt Take).wav” WAVE
TRACK 15 AUDIO
TITLE “Boss D.J. (Alt Take)”
PERFORMER “Sublime”
INDEX 01 00:00:00
FILE “Sublime – 2006 – Everything Under The Sun (CD 3)\16 – Real Situation.wav” WAVE
TRACK 16 AUDIO
TITLE “Real Situation”
PERFORMER “Sublime”
INDEX 01 00:00:00
FILE “Sublime – 2006 – Everything Under The Sun (CD 3)\17 – Date Rape.wav” WAVE
TRACK 17 AUDIO
TITLE “Date Rape”
PERFORMER “Sublime”
INDEX 01 00:00:00
FILE “Sublime – 2006 – Everything Under The Sun (CD 3)\18 – Soundcheck Jam.wav” WAVE
TRACK 18 AUDIO
TITLE “Soundcheck Jam”
PERFORMER “Sublime”
INDEX 01 00:00:00
TRACK 19 AUDIO
TITLE “Doin’ Time (Snoop Time Remix)”
PERFORMER “Sublime”
INDEX 00 02:08:42
FILE “Sublime – 2006 – Everything Under The Sun (CD 3)\19 – Doin’ Time (Snoop Time Remix).wav” WAVE
INDEX 01 00:00:00
FILE “Sublime – 2006 – Everything Under The Sun (CD 3)\20 – Doin’ Time (Tricked Out Life Sentence Remix).wav” WAVE
TRACK 20 AUDIO
TITLE “Doin’ Time (Tricked Out Life Sentence Remix)”
PERFORMER “Sublime”
INDEX 01 00:00:00


Leave a Reply

Your email address will not be published. Required fields are marked *

This site uses Akismet to reduce spam. Learn how your comment data is processed.