Sublime – 40oz. To Freedom




No Cover available

Artist: Sublime
Year: 1992
Genre: Ska
Notes: Discogs
Add. Notes:
Watch Songs on: YouTube
Cover incl.: Yes
Encoder: FLAC
Bitrate: ~800 kBit/s (44.1 kHz/16 Bit/s)
Log & Cue incl.: Yes
Size: 449,2 MB
Password: “slam” (without ” “)


All Downloads/Hosters are compatible

Download 1
KatFile.com
Turbobit.net
Rapidgator.net
FileFactory.com
Download 2
KatFile.com
Turbobit.net
Rapidgator.net
FileFactory.com

Tracklist:

1 - Waiting For My Ruca - 2:20
2 - 40 Oz. To Freedom - 3:03
3 - Smoke Two Joints - 2:53
4 - We're Only Gonna Die For Our Arrogance - 3:07
5 - Don't Push - 4:19
6 - 5446 That's My Number/Ball And Chain - 5:18
7 - Badfish - 3:05
8 - Let's Go Get Stoned - 3:33
9 - New Thrash - 1:30
10 - Scarlet Begonias - 3:32
11 - Live At E's - 3:09
12 - DJs - 3:18
13 - Chica Me Tipo - 2:16
14 - Right Back - 2:49
15 - What Happened - 3:39
16 - New Song - 3:14
17 - Ebin - 3:34
18 - Date Rape - 3:35
19 - Hope - 1:43
20 - KRS-One - 2:24
21 - Rivers Of Babylon - 2:29
22 - Trench Town Rock - 1:37
23 - Untitled Dub - 2:50
24 - Ebin (Original) - 4:07

EAC-Log, CUE-Sheed & NFO:

Click to open spoiler
Exact Audio Copy V0.99 prebeta 3 from 28. July 2007

EAC extraction logfile from 27. December 2008, 21:19

Sublime / 40oz. To Freedom

Used drive : TSSTcorpCD/DVDW SH-S182M Adapter: 1 ID: 0

Read mode : Secure
Utilize accurate stream : Yes
Defeat audio cache : Yes
Make use of C2 pointers : No

Read offset correction : 6
Overread into Lead-In and Lead-Out : No
Fill up missing offset samples with silence : Yes
Delete leading and trailing silent blocks : No
Null samples used in CRC calculations : Yes
Used interface : Installed external ASPI interface
Gap handling : Appended to previous track

Used output format : User Defined Encoder
Selected bitrate : 192 kBit/s
Quality : High
Add ID3 tag : No
Command line compressor : C:\Program Files\Exact Audio Copy\flac.exe
Additional command line options : -8 -A tukey(0.25) -A gauss(0.1875) -b 4096 -V -T “artist=%a” -T “title=%t” -T “album=%g” -T “date=%y” -T “tracknumber=%n” -T “genre=%m” %s –sector-align

TOC of the extracted CD

Track | Start | Length | Start sector | End sector
———————————————————
1 | 0:00.00 | 2:20.40 | 0 | 10539
2 | 2:20.40 | 3:32.15 | 10540 | 26454
3 | 5:52.55 | 3:02.32 | 26455 | 40136
4 | 8:55.12 | 2:53.68 | 40137 | 53179
5 | 11:49.05 | 3:27.67 | 53180 | 68771
6 | 15:16.72 | 4:18.60 | 68772 | 88181
7 | 19:35.57 | 5:17.43 | 88182 | 111999
8 | 24:53.25 | 3:05.10 | 112000 | 125884
9 | 27:58.35 | 3:37.65 | 125885 | 142224
10 | 31:36.25 | 1:26.40 | 142225 | 148714
11 | 33:02.65 | 3:35.15 | 148715 | 164854
12 | 36:38.05 | 3:08.67 | 164855 | 179021
13 | 39:46.72 | 3:18.13 | 179022 | 193884
14 | 43:05.10 | 2:16.07 | 193885 | 204091
15 | 45:21.17 | 2:49.40 | 204092 | 216806
16 | 48:10.57 | 3:26.35 | 216807 | 232291
17 | 51:37.17 | 3:15.25 | 232292 | 246941
18 | 54:52.42 | 3:32.30 | 246942 | 262871
19 | 58:24.72 | 4:38.38 | 262872 | 283759
20 | 63:03.35 | 1:43.45 | 283760 | 291529
21 | 64:47.05 | 2:23.60 | 291530 | 302314
22 | 67:10.65 | 2:29.37 | 302315 | 313526
23 | 69:40.27 | 4:23.10 | 313527 | 333261

Track 1

Filename C:\Documents and Settings\Owner\My Documents\New Folder (3)\01 – Sublime – Waiting For My Ruca.wav

Pre-gap length 0:00:02.00

Peak level 72.3 %
Track quality 100.0 %
Test CRC B8502A23
Copy CRC B8502A23
Accurately ripped (confidence 8) [77CCD388]
Copy OK

Track 2

Filename C:\Documents and Settings\Owner\My Documents\New Folder (3)\02 – Sublime – Get Out!.wav

Peak level 75.1 %
Track quality 99.9 %
Test CRC 2937E1C3
Copy CRC 2937E1C3
Accurately ripped (confidence 7) [2CE2C086]
Copy OK

Track 3

Filename C:\Documents and Settings\Owner\My Documents\New Folder (3)\03 – Sublime – 40Oz. To Freedom.wav

Peak level 73.7 %
Track quality 100.0 %
Test CRC 9BCE36BF
Copy CRC 9BCE36BF
Accurately ripped (confidence 8) [AA2CE40A]
Copy OK

Track 4

Filename C:\Documents and Settings\Owner\My Documents\New Folder (3)\04 – Sublime – Smoke Two Joints.wav

Peak level 78.3 %
Track quality 100.0 %
Test CRC 3FD0BAA4
Copy CRC 3FD0BAA4
Accurately ripped (confidence 8) [A581EDE6]
Copy OK

Track 5

Filename C:\Documents and Settings\Owner\My Documents\New Folder (3)\05 – Sublime – We’re Only Gonna Die For Our Arrogance.wav

Peak level 80.4 %
Track quality 99.9 %
Test CRC 3A707C4C
Copy CRC 3A707C4C
Accurately ripped (confidence 8) [06C33FE0]
Copy OK

Track 6

Filename C:\Documents and Settings\Owner\My Documents\New Folder (3)\06 – Sublime – Don’t Push.wav

Peak level 85.1 %
Track quality 100.0 %
Test CRC BA8B8FCB
Copy CRC BA8B8FCB
Accurately ripped (confidence 6) [C7EC61F6]
Copy OK

Track 7

Filename C:\Documents and Settings\Owner\My Documents\New Folder (3)\07 – Sublime – 5446,Ball And Chain.wav

Peak level 80.7 %
Track quality 100.0 %
Test CRC C4626812
Copy CRC C4626812
Accurately ripped (confidence 7) [1EC96200]
Copy OK

Track 8

Filename C:\Documents and Settings\Owner\My Documents\New Folder (3)\08 – Sublime – Badfish.wav

Peak level 87.2 %
Track quality 100.0 %
Test CRC 614EC2B9
Copy CRC 614EC2B9
Accurately ripped (confidence 8) [7838BBE6]
Copy OK

Track 9

Filename C:\Documents and Settings\Owner\My Documents\New Folder (3)\09 – Sublime – Lets Go Get Stoned.wav

Peak level 86.0 %
Track quality 100.0 %
Test CRC 81F03046
Copy CRC 81F03046
Accurately ripped (confidence 7) [85725FAE]
Copy OK

Track 10

Filename C:\Documents and Settings\Owner\My Documents\New Folder (3)\10 – Sublime – New Thrash.wav

Peak level 82.6 %
Track quality 100.0 %
Test CRC 173B2086
Copy CRC 173B2086
Accurately ripped (confidence 8) [E9D8A9D7]
Copy OK

Track 11

Filename C:\Documents and Settings\Owner\My Documents\New Folder (3)\11 – Sublime – Scarlet Begonias.wav

Peak level 80.1 %
Track quality 99.9 %
Test CRC 28ADF045
Copy CRC 28ADF045
Accurately ripped (confidence 8) [D12559F7]
Copy OK

Track 12

Filename C:\Documents and Settings\Owner\My Documents\New Folder (3)\12 – Sublime – Live At E’s.wav

Peak level 83.6 %
Track quality 100.0 %
Test CRC D739F170
Copy CRC D739F170
Accurately ripped (confidence 8) [C4B2EDB0]
Copy OK

Track 13

Filename C:\Documents and Settings\Owner\My Documents\New Folder (3)\13 – Sublime – D.J.S.wav

Peak level 86.2 %
Track quality 99.8 %
Test CRC D6ADFAFF
Copy CRC D6ADFAFF
Accurately ripped (confidence 7) [883653D6]
Copy OK

Track 14

Filename C:\Documents and Settings\Owner\My Documents\New Folder (3)\14 – Sublime – Chica Me Tipo.wav

Peak level 78.2 %
Track quality 100.0 %
Test CRC F257EE97
Copy CRC F257EE97
Accurately ripped (confidence 8) [7A1C888E]
Copy OK

Track 15

Filename C:\Documents and Settings\Owner\My Documents\New Folder (3)\15 – Sublime – Right Back.wav

Peak level 77.6 %
Track quality 100.0 %
Test CRC AADBB6FD
Copy CRC AADBB6FD
Accurately ripped (confidence 7) [9D282A72]
Copy OK

Track 16

Filename C:\Documents and Settings\Owner\My Documents\New Folder (3)\16 – Sublime – What Happened.wav

Peak level 76.5 %
Track quality 100.0 %
Test CRC 0EE381D3
Copy CRC 0EE381D3
Accurately ripped (confidence 6) [2A218E56]
Copy OK

Track 17

Filename C:\Documents and Settings\Owner\My Documents\New Folder (3)\17 – Sublime – New Song.wav

Peak level 79.8 %
Track quality 100.0 %
Test CRC 6415273D
Copy CRC 6415273D
Accurately ripped (confidence 6) [0F683A54]
Copy OK

Track 18

Filename C:\Documents and Settings\Owner\My Documents\New Folder (3)\18 – Sublime – Ebin.wav

Peak level 71.3 %
Track quality 100.0 %
Test CRC 568ED9A3
Copy CRC 568ED9A3
Accurately ripped (confidence 7) [0C36B545]
Copy OK

Track 19

Filename C:\Documents and Settings\Owner\My Documents\New Folder (3)\19 – Sublime – Date Rape.wav

Peak level 85.9 %
Track quality 100.0 %
Test CRC 03F0578D
Copy CRC 03F0578D
Accurately ripped (confidence 6) [B68C37A6]
Copy OK

Track 20

Filename C:\Documents and Settings\Owner\My Documents\New Folder (3)\20 – Sublime – Hope.wav

Peak level 79.6 %
Track quality 99.8 %
Test CRC CC287A09
Copy CRC CC287A09
Accurately ripped (confidence 5) [BAA0CE84]
Copy OK

Track 21

Filename C:\Documents and Settings\Owner\My Documents\New Folder (3)\21 – Sublime – KRS-One.wav

Peak level 88.2 %
Track quality 99.9 %
Test CRC B9BFB6BB
Copy CRC B9BFB6BB
Accurately ripped (confidence 4) [A75F8B5E]
Copy OK

Track 22

Filename C:\Documents and Settings\Owner\My Documents\New Folder (3)\22 – Sublime – By The Rivers Of Babylon.wav

Peak level 77.7 %
Track quality 100.0 %
Test CRC 5C23F3EB
Copy CRC 5C23F3EB
Accurately ripped (confidence 6) [BC567A53]
Copy OK

Track 23

Filename C:\Documents and Settings\Owner\My Documents\New Folder (3)\23 – Sublime – Thanks! And Credits….wav

Peak level 80.5 %
Track quality 100.0 %
Test CRC 9F27F9D7
Copy CRC 9F27F9D7
Accurately ripped (confidence 4) [32A32454]
Copy OK

All tracks accurately ripped

No errors occurred

End of status report

REM GENRE Ska
REM DATE 1992
REM DISCID 74115B17
REM COMMENT “ExactAudioCopy v0.99pb3”
PERFORMER “Sublime”
TITLE “40oz. To Freedom”
FILE “01 – Sublime – Waiting For My Ruca.wav” WAVE
TRACK 01 AUDIO
TITLE “Waiting For My Ruca”
PERFORMER “Sublime”
INDEX 01 00:00:00
FILE “02 – Sublime – Get Out!.wav” WAVE
TRACK 02 AUDIO
TITLE “Get Out!”
PERFORMER “Sublime”
INDEX 01 00:00:00
FILE “03 – Sublime – 40Oz. To Freedom.wav” WAVE
TRACK 03 AUDIO
TITLE “40Oz. To Freedom”
PERFORMER “Sublime”
INDEX 01 00:00:00
FILE “04 – Sublime – Smoke Two Joints.wav” WAVE
TRACK 04 AUDIO
TITLE “Smoke Two Joints”
PERFORMER “Sublime”
INDEX 01 00:00:00
FILE “05 – Sublime – We’re Only Gonna Die For Our Arrogance.wav” WAVE
TRACK 05 AUDIO
TITLE “We’re Only Gonna Die For Our Arrogance”
PERFORMER “Sublime”
INDEX 01 00:00:00
FILE “06 – Sublime – Don’t Push.wav” WAVE
TRACK 06 AUDIO
TITLE “Don’t Push”
PERFORMER “Sublime”
INDEX 01 00:00:00
FILE “07 – Sublime – 5446,Ball And Chain.wav” WAVE
TRACK 07 AUDIO
TITLE “5446/Ball And Chain”
PERFORMER “Sublime”
INDEX 01 00:00:00
FILE “08 – Sublime – Badfish.wav” WAVE
TRACK 08 AUDIO
TITLE “Badfish”
PERFORMER “Sublime”
INDEX 01 00:00:00
FILE “09 – Sublime – Lets Go Get Stoned.wav” WAVE
TRACK 09 AUDIO
TITLE “Lets Go Get Stoned”
PERFORMER “Sublime”
INDEX 01 00:00:00
FILE “10 – Sublime – New Thrash.wav” WAVE
TRACK 10 AUDIO
TITLE “New Thrash”
PERFORMER “Sublime”
INDEX 01 00:00:00
FILE “11 – Sublime – Scarlet Begonias.wav” WAVE
TRACK 11 AUDIO
TITLE “Scarlet Begonias”
PERFORMER “Sublime”
INDEX 01 00:00:00
FILE “12 – Sublime – Live At E’s.wav” WAVE
TRACK 12 AUDIO
TITLE “Live At E’s”
PERFORMER “Sublime”
INDEX 01 00:00:00
FILE “13 – Sublime – D.J.S.wav” WAVE
TRACK 13 AUDIO
TITLE “D.J.S”
PERFORMER “Sublime”
INDEX 01 00:00:00
FILE “14 – Sublime – Chica Me Tipo.wav” WAVE
TRACK 14 AUDIO
TITLE “Chica Me Tipo”
PERFORMER “Sublime”
INDEX 01 00:00:00
FILE “15 – Sublime – Right Back.wav” WAVE
TRACK 15 AUDIO
TITLE “Right Back”
PERFORMER “Sublime”
INDEX 01 00:00:00
FILE “16 – Sublime – What Happened.wav” WAVE
TRACK 16 AUDIO
TITLE “What Happened”
PERFORMER “Sublime”
INDEX 01 00:00:00
FILE “17 – Sublime – New Song.wav” WAVE
TRACK 17 AUDIO
TITLE “New Song”
PERFORMER “Sublime”
INDEX 01 00:00:00
FILE “18 – Sublime – Ebin.wav” WAVE
TRACK 18 AUDIO
TITLE “Ebin”
PERFORMER “Sublime”
INDEX 01 00:00:00
FILE “19 – Sublime – Date Rape.wav” WAVE
TRACK 19 AUDIO
TITLE “Date Rape”
PERFORMER “Sublime”
INDEX 01 00:00:00
FILE “20 – Sublime – Hope.wav” WAVE
TRACK 20 AUDIO
TITLE “Hope”
PERFORMER “Sublime”
INDEX 01 00:00:00
FILE “21 – Sublime – KRS-One.wav” WAVE
TRACK 21 AUDIO
TITLE “KRS-One”
PERFORMER “Sublime”
INDEX 01 00:00:00
FILE “22 – Sublime – By The Rivers Of Babylon.wav” WAVE
TRACK 22 AUDIO
TITLE “By The Rivers Of Babylon”
PERFORMER “Sublime”
INDEX 01 00:00:00
FILE “23 – Sublime – Thanks! And Credits….wav” WAVE
TRACK 23 AUDIO
TITLE “Thanks! And Credits…”
PERFORMER “Sublime”
INDEX 01 00:00:00


Leave a Reply

Your email address will not be published. Required fields are marked *

This site uses Akismet to reduce spam. Learn how your comment data is processed.