Sublime – 13 Fl. Oz




No Cover available

Artist: Sublime
Year: 1994
Genre: Ska
Notes: Discogs
Add. Notes:
Watch Songs on: YouTube
Cover incl.: Yes
Encoder: FLAC
Bitrate: ~700 kBit/s (44.1 kHz/16 Bit/s)
Log & Cue incl.: Yes
Size: 254,4 MB
Password: “slam” (without ” “)


All Downloads/Hosters are compatible

Download 1
KatFile.com
Turbobit.net
Rapidgator.net
FileFactory.com
Download 2
KatFile.com
Turbobit.net
Rapidgator.net
FileFactory.com

Tracklist:

1 - Greatest Hits - 2:55
2 - Work The We Do - 2:36
3 - Saw Red - 1:58
4 - Badfish - 3:07
5 - New Thrash - 1:30
6 - Waiting For My Ruca - 2:21
7 - Secret Tweeker Pad - 3:00
8 - Free Loop Dub - 3:13
9 - D.J.'s - 3:19
10 - 40 Oz. To Freedom - 3:03
11 - Don't Push (Original Version) - 3:45
12 - Poolshark - 2:28
13 - All You Need / Date Rape (Demo) / Ebin (Demo) - 
12:08

EAC-Log, CUE-Sheed & NFO:

Click to open spoiler
Exact Audio Copy V0.99 prebeta 3 from 28. July 2007

EAC extraction logfile from 5. April 2008, 20:37

Sublime / 13 Fl. Oz.

Used drive : TSSTcorpCD/DVDW TS-H653L Adapter: 0 ID: 1

Read mode : Secure
Utilize accurate stream : Yes
Defeat audio cache : Yes
Make use of C2 pointers : No

Read offset correction : 6
Overread into Lead-In and Lead-Out : No
Fill up missing offset samples with silence : Yes
Delete leading and trailing silent blocks : No
Null samples used in CRC calculations : Yes
Used interface : Native Win32 interface for Win NT & 2000
Gap handling : Appended to previous track

Used output format : User Defined Encoder
Selected bitrate : 768 kBit/s
Quality : High
Add ID3 tag : Yes
Command line compressor : C:\Program Files\Exact Audio Copy\Flac\flac.exe
Additional command line options : -8 -A tukey(0.25) -A gauss(0.1875) -b 4096 -V -T “artist=%a” -T “title=%t” -T “album=%g” -T “date=%y” -T “tracknumber=%n” -T “genre=%m” %s –sector-align

TOC of the extracted CD

Track | Start | Length | Start sector | End sector
———————————————————
1 | 0:00.00 | 2:54.65 | 0 | 13114
2 | 2:54.65 | 2:35.72 | 13115 | 24811
3 | 5:30.62 | 1:57.60 | 24812 | 33646
4 | 7:28.47 | 3:06.40 | 33647 | 47636
5 | 10:35.12 | 1:30.18 | 47637 | 54404
6 | 12:05.30 | 2:20.70 | 54405 | 64974
7 | 14:26.25 | 2:59.50 | 64975 | 78449
8 | 17:26.00 | 3:13.10 | 78450 | 92934
9 | 20:39.10 | 3:18.44 | 92935 | 107828
10 | 23:57.54 | 3:03.33 | 107829 | 121586
11 | 27:01.12 | 3:45.05 | 121587 | 138466
12 | 30:46.17 | 2:28.10 | 138467 | 149576
13 | 33:14.27 | 12:08.10 | 149577 | 204186

Track 1

Filename C:\Users\Derek\Music\WHAT.CD\Sublime- 13 Fl. Oz. (FLAC)\01.Greatest Hits.wav

Pre-gap length 0:00:02.00

Peak level 100.0 %
Track quality 100.0 %
Test CRC 42D59AD4
Copy CRC 42D59AD4
Track not present in AccurateRip database
Copy OK

Track 2

Filename C:\Users\Derek\Music\WHAT.CD\Sublime- 13 Fl. Oz. (FLAC)\02.Work That We Do.wav

Pre-gap length 0:00:01.13

Peak level 97.3 %
Track quality 100.0 %
Test CRC 9F96F713
Copy CRC 9F96F713
Track not present in AccurateRip database
Copy OK

Track 3

Filename C:\Users\Derek\Music\WHAT.CD\Sublime- 13 Fl. Oz. (FLAC)\03.Saw Red.wav

Pre-gap length 0:00:01.70

Peak level 100.0 %
Track quality 100.0 %
Test CRC DA88E8DD
Copy CRC DA88E8DD
Track not present in AccurateRip database
Copy OK

Track 4

Filename C:\Users\Derek\Music\WHAT.CD\Sublime- 13 Fl. Oz. (FLAC)\04.Badfish.wav

Pre-gap length 0:00:00.02

Peak level 88.4 %
Track quality 100.0 %
Test CRC C23E4CF2
Copy CRC C23E4CF2
Track not present in AccurateRip database
Copy OK

Track 5

Filename C:\Users\Derek\Music\WHAT.CD\Sublime- 13 Fl. Oz. (FLAC)\05.New Thrash.wav

Pre-gap length 0:00:01.47

Peak level 87.8 %
Track quality 100.0 %
Test CRC 359CF860
Copy CRC 359CF860
Track not present in AccurateRip database
Copy OK

Track 6

Filename C:\Users\Derek\Music\WHAT.CD\Sublime- 13 Fl. Oz. (FLAC)\06.Waiting for My Tuca.wav

Pre-gap length 0:00:00.02

Peak level 76.4 %
Track quality 100.0 %
Test CRC D5633545
Copy CRC D5633545
Track not present in AccurateRip database
Copy OK

Track 7

Filename C:\Users\Derek\Music\WHAT.CD\Sublime- 13 Fl. Oz. (FLAC)\07.Secret Tweeker Pad.wav

Pre-gap length 0:00:00.68

Peak level 96.8 %
Track quality 99.9 %
Test CRC 5373F25E
Copy CRC 5373F25E
Track not present in AccurateRip database
Copy OK

Track 8

Filename C:\Users\Derek\Music\WHAT.CD\Sublime- 13 Fl. Oz. (FLAC)\08.Free Loop Dub.wav

Pre-gap length 0:00:00.32

Peak level 91.6 %
Track quality 100.0 %
Test CRC D1F00D00
Copy CRC D1F00D00
Track not present in AccurateRip database
Copy OK

Track 9

Filename C:\Users\Derek\Music\WHAT.CD\Sublime- 13 Fl. Oz. (FLAC)\09.D.J.’s.wav

Pre-gap length 0:00:01.10

Peak level 90.9 %
Track quality 99.9 %
Test CRC 0EE20045
Copy CRC 0EE20045
Track not present in AccurateRip database
Copy OK

Track 10

Filename C:\Users\Derek\Music\WHAT.CD\Sublime- 13 Fl. Oz. (FLAC)\10.40oz. to Freedom.wav

Pre-gap length 0:00:00.32

Peak level 80.1 %
Track quality 100.0 %
Test CRC 5AA2312B
Copy CRC 5AA2312B
Track not present in AccurateRip database
Copy OK

Track 11

Filename C:\Users\Derek\Music\WHAT.CD\Sublime- 13 Fl. Oz. (FLAC)\11.Don’t Push (original).wav

Pre-gap length 0:00:00.62

Peak level 95.4 %
Track quality 100.0 %
Test CRC C09F7CFC
Copy CRC C09F7CFC
Track not present in AccurateRip database
Copy OK

Track 12

Filename C:\Users\Derek\Music\WHAT.CD\Sublime- 13 Fl. Oz. (FLAC)\12.Poolshark.wav

Pre-gap length 0:00:00.02

Peak level 100.0 %
Track quality 100.0 %
Test CRC FE3142B8
Copy CRC FE3142B8
Track not present in AccurateRip database
Copy OK

Track 13

Filename C:\Users\Derek\Music\WHAT.CD\Sublime- 13 Fl. Oz. (FLAC)\13.All You Need – Date Rape (demo) – Ebin (demo).wav

Pre-gap length 0:00:00.45

Peak level 91.5 %
Track quality 100.0 %
Test CRC ED0CC491
Copy CRC ED0CC491
Track not present in AccurateRip database
Copy OK

None of the tracks are present in the AccurateRip database

No errors occurred

End of status report

REM GENRE Alternative
REM DATE 1994
REM DISCID B70AA20D
REM COMMENT “ExactAudioCopy v0.99pb3”
PERFORMER “Sublime”
TITLE “13 Fl. Oz.”
FILE “01.Greatest Hits.wav” WAVE
TRACK 01 AUDIO
TITLE “Greatest Hits”
PERFORMER “Sublime”
INDEX 01 00:00:00
TRACK 02 AUDIO
TITLE “Work That We Do”
PERFORMER “Sublime”
INDEX 00 02:53:52
FILE “02.Work That We Do.wav” WAVE
INDEX 01 00:00:00
TRACK 03 AUDIO
TITLE “Saw Red”
PERFORMER “Sublime”
INDEX 00 02:34:02
FILE “03.Saw Red.wav” WAVE
INDEX 01 00:00:00
TRACK 04 AUDIO
TITLE “Badfish”
PERFORMER “Sublime”
INDEX 00 01:57:58
FILE “04.Badfish.wav” WAVE
INDEX 01 00:00:00
TRACK 05 AUDIO
TITLE “New Thrash”
PERFORMER “Sublime”
INDEX 00 03:04:68
FILE “05.New Thrash.wav” WAVE
INDEX 01 00:00:00
TRACK 06 AUDIO
TITLE “Waiting for My Tuca”
PERFORMER “Sublime”
INDEX 00 01:30:16
FILE “06.Waiting for My Tuca.wav” WAVE
INDEX 01 00:00:00
TRACK 07 AUDIO
TITLE “Secret Tweeker Pad”
PERFORMER “Sublime”
INDEX 00 02:20:02
FILE “07.Secret Tweeker Pad.wav” WAVE
INDEX 01 00:00:00
TRACK 08 AUDIO
TITLE “Free Loop Dub”
PERFORMER “Sublime”
INDEX 00 02:59:18
FILE “08.Free Loop Dub.wav” WAVE
INDEX 01 00:00:00
TRACK 09 AUDIO
TITLE “D.J.’s”
PERFORMER “Sublime”
INDEX 00 03:12:00
FILE “09.D.J.’s.wav” WAVE
INDEX 01 00:00:00
TRACK 10 AUDIO
TITLE “40oz. to Freedom”
PERFORMER “Sublime”
INDEX 00 03:18:12
FILE “10.40oz. to Freedom.wav” WAVE
INDEX 01 00:00:00
TRACK 11 AUDIO
TITLE “Don’t Push (original)”
PERFORMER “Sublime”
INDEX 00 03:02:46
FILE “11.Don’t Push (original).wav” WAVE
INDEX 01 00:00:00
TRACK 12 AUDIO
TITLE “Poolshark”
PERFORMER “Sublime”
INDEX 00 03:45:03
FILE “12.Poolshark.wav” WAVE
INDEX 01 00:00:00
TRACK 13 AUDIO
TITLE “All You Need – Date Rape (demo) – Ebin (demo)”
PERFORMER “Sublime”
INDEX 00 02:27:40
FILE “13.All You Need – Date Rape (demo) – Ebin (demo).wav” WAVE
INDEX 01 00:00:00


Leave a Reply

Your email address will not be published. Required fields are marked *

This site uses Akismet to reduce spam. Learn how your comment data is processed.