Status Quo – Rockin’ All Over The World (Remastered)




No Cover available

Artist: Status Quo
Year: 1977/2019
Genre: Rock
Notes: Discogs
Add. Notes: Remastered
Watch Songs on: YouTube
Cover incl.: Yes
Encoder: FLAC
Bitrate: ~1000 kBit/s (44.1 kHz/16 Bit/s)
Log & Cue incl.: Yes/Yes
Size: 459,8 MB
Password: “slam” (without ” “)


All Downloads/Hosters are compatible

Download 1
KatFile.com
Turbobit.net
Rapidgator.net
FileFactory.com
Download 2
KatFile.com
Turbobit.net
Rapidgator.net
FileFactory.com

Tracklist:

1 Hard Time 4:45
2 Can't Give You More 4:15
3 Let's Ride 3:03
4 Baby Boy 3:12
5 You Don't Own Me 3:03
6 Rockers Rollin' 4:19
7 Rockin' All Over The World 3:33
8 Who Am I? 4:30
9 Too Far Gone 3:08
10 For You 3:01
11 Dirty Water 3:51
12 Hold You Back 4:30
13 Getting Better 2:21

EAC-Log, CUE-Sheed & NFO:

Click to open spoiler
EAC extraction logfile from 16. December 2006, 11:54 for CD
Status Quo / Rockin’ All Over The World

Used drive : _NEC DVD_RW ND-3500AG Adapter: 0 ID: 1
Read mode : Secure with NO C2, accurate stream, disable cache
Read offset correction : 48
Overread into Lead-In and Lead-Out : No

Used output format : Internal WAV Routines
44.100 Hz; 16 Bit; Stereo

Other options :
Fill up missing offset samples with silence : Yes
Delete leading and trailing silent blocks : No
Installed external ASPI interface

Track 1
Filename F:\UPLOAD\STATUS QUO\Status Quo – Rockin’ All Over The World (1977) [FLAC] {2005 reissue, bonus track}\01 – Hard Time.wav

Pre-gap length 0:00:02.00

Peak level 97.7 %
Track quality 100.0 %
Test CRC 22BAAB4F
Copy CRC 22BAAB4F
Copy OK

Track 2
Filename F:\UPLOAD\STATUS QUO\Status Quo – Rockin’ All Over The World (1977) [FLAC] {2005 reissue, bonus track}\02 – Can’t Give You More.wav

Peak level 97.7 %
Track quality 100.0 %
Test CRC 589CE67F
Copy CRC 589CE67F
Copy OK

Track 3
Filename F:\UPLOAD\STATUS QUO\Status Quo – Rockin’ All Over The World (1977) [FLAC] {2005 reissue, bonus track}\03 – Let’s Ride.wav

Peak level 97.7 %
Track quality 100.0 %
Test CRC 6640D652
Copy CRC 6640D652
Copy OK

Track 4
Filename F:\UPLOAD\STATUS QUO\Status Quo – Rockin’ All Over The World (1977) [FLAC] {2005 reissue, bonus track}\04 – Baby Boy.wav

Peak level 97.7 %
Track quality 100.0 %
Test CRC DAECA642
Copy CRC DAECA642
Copy OK

Track 5
Filename F:\UPLOAD\STATUS QUO\Status Quo – Rockin’ All Over The World (1977) [FLAC] {2005 reissue, bonus track}\05 – You Don’t Own Me.wav

Peak level 97.7 %
Track quality 100.0 %
Test CRC DE595714
Copy CRC DE595714
Copy OK

Track 6
Filename F:\UPLOAD\STATUS QUO\Status Quo – Rockin’ All Over The World (1977) [FLAC] {2005 reissue, bonus track}\06 – Rockers Rollin’.wav

Peak level 97.7 %
Track quality 99.9 %
Test CRC 57AB8437
Copy CRC 57AB8437
Copy OK

Track 7
Filename F:\UPLOAD\STATUS QUO\Status Quo – Rockin’ All Over The World (1977) [FLAC] {2005 reissue, bonus track}\07 – Rockin’ All Over The World.wav

Peak level 97.7 %
Track quality 99.9 %
Test CRC 6A3A1AA3
Copy CRC 6A3A1AA3
Copy OK

Track 8
Filename F:\UPLOAD\STATUS QUO\Status Quo – Rockin’ All Over The World (1977) [FLAC] {2005 reissue, bonus track}\08 – Who Am I .wav

Peak level 97.7 %
Track quality 100.0 %
Test CRC 065A3931
Copy CRC 065A3931
Copy OK

Track 9
Filename F:\UPLOAD\STATUS QUO\Status Quo – Rockin’ All Over The World (1977) [FLAC] {2005 reissue, bonus track}\09 – Too Far Gone.wav

Peak level 97.7 %
Track quality 100.0 %
Test CRC 06E3CCC7
Copy CRC 06E3CCC7
Copy OK

Track 10
Filename F:\UPLOAD\STATUS QUO\Status Quo – Rockin’ All Over The World (1977) [FLAC] {2005 reissue, bonus track}\10 – For You.wav

Peak level 97.7 %
Track quality 100.0 %
Test CRC ABD72A26
Copy CRC ABD72A26
Copy OK

Track 11
Filename F:\UPLOAD\STATUS QUO\Status Quo – Rockin’ All Over The World (1977) [FLAC] {2005 reissue, bonus track}\11 – Dirty Water.wav

Peak level 97.7 %
Track quality 100.0 %
Test CRC B2598E5A
Copy CRC B2598E5A
Copy OK

Track 12
Filename F:\UPLOAD\STATUS QUO\Status Quo – Rockin’ All Over The World (1977) [FLAC] {2005 reissue, bonus track}\12 – Hold You Back.wav

Peak level 97.7 %
Track quality 100.0 %
Test CRC 6F5FFB57
Copy CRC 6F5FFB57
Copy OK

Track 13
Filename F:\UPLOAD\STATUS QUO\Status Quo – Rockin’ All Over The World (1977) [FLAC] {2005 reissue, bonus track}\13 – Getting Better [bonus track].wav

Peak level 97.7 %
Track quality 100.0 %
Test CRC 772C4ABE
Copy CRC 772C4ABE
Copy OK

No errors occured

End of status report

REM DISCID B40B370D
REM COMMENT “ExactAudioCopy v0.95b3”
PERFORMER “Status Quo”
TITLE “Rockin’ All Over The World”
FILE “Range.wav” WAVE
TRACK 01 AUDIO
TITLE “Hard Time”
PERFORMER “Status Quo”
INDEX 01 00:00:00
TRACK 02 AUDIO
TITLE “Can’t Give You More”
PERFORMER “Status Quo”
INDEX 01 04:45:51
TRACK 03 AUDIO
TITLE “Let’s Ride”
PERFORMER “Status Quo”
INDEX 01 09:03:06
TRACK 04 AUDIO
TITLE “Baby Boy”
PERFORMER “Status Quo”
INDEX 01 12:07:48
TRACK 05 AUDIO
TITLE “You Don’t Own Me”
PERFORMER “Status Quo”
INDEX 01 15:21:04
TRACK 06 AUDIO
TITLE “Rockers Rollin'”
PERFORMER “Status Quo”
INDEX 01 18:25:72
TRACK 07 AUDIO
TITLE “Rockin’ All Over The World”
PERFORMER “Status Quo”
INDEX 01 22:44:44
TRACK 08 AUDIO
TITLE “Who Am I?”
PERFORMER “Status Quo”
INDEX 01 26:22:03
TRACK 09 AUDIO
TITLE “Too Far Gone”
PERFORMER “Status Quo”
INDEX 01 30:53:58
TRACK 10 AUDIO
TITLE “For You”
PERFORMER “Status Quo”
INDEX 01 34:02:39
TRACK 11 AUDIO
TITLE “Dirty Water”
PERFORMER “Status Quo”
INDEX 01 37:04:08
TRACK 12 AUDIO
TITLE “Hold You Back”
PERFORMER “Status Quo”
INDEX 01 40:56:69
TRACK 13 AUDIO
TITLE “Getting Better [bonus track]”
PERFORMER “Status Quo”
INDEX 01 45:28:27


0

Publication author

offline 9 hours

Chaos

3
Comments: 4Publics: 3424Registration: 02-02-2019
Spread the Download

Leave a Reply

Your email address will not be published. Required fields are marked *

Enter the text from the image below
 

This site uses Akismet to reduce spam. Learn how your comment data is processed.