Status Quo – Live (Remastered)




No Cover available

Artist: Status Quo
Year: 1977/2005
Genre: Rock
Notes: Discogs
Add. Notes: Remastered
Watch Songs on: YouTube
Cover incl.: Yes
Encoder: FLAC
Bitrate: ~1000 kBit/s (44.1 kHz/16 Bit/s)
Log & Cue incl.: Yes/Yes
Size: 680,3 MB
Password: “slam” (without ” “)


All Downloads/Hosters are compatible

Download 1
KatFile.com
Turbobit.net
Rapidgator.net
FileFactory.com
Download 2
KatFile.com
Turbobit.net
Rapidgator.net
FileFactory.com

Tracklist:

CD 1
1 Junior's Wailing 5:21
2 (a) Backwater 8:28
2 (b) Just Take Me 
3 Is There A Better Way 4:17
4 In My Chair 3:36
5 (a) Little Lady 7:19
5 (b) Most Of The Time 
6 Rain 4:53
7 Forty Five Hundred Times 16:42

CD 2
1 Roll Over Lay Down 6:04
2 Big Fat Mama 5:22
3 Don't Waste My Time 4:05
4 Roadhouse Blues 14:21
5 Caroline 6:43
6 Bye Bye Johnny 6:22

EAC-Log, CUE-Sheed & NFO:

Click to open spoiler
EAC extraction logfile from 12. December 2006, 17:02 for CD
Status Quo / Live, Vol. 1

Used drive : _NEC DVD_RW ND-3500AG Adapter: 0 ID: 1
Read mode : Secure with NO C2, accurate stream, disable cache
Read offset correction : 48
Overread into Lead-In and Lead-Out : No

Used output format : Internal WAV Routines
44.100 Hz; 16 Bit; Stereo

Other options :
Fill up missing offset samples with silence : Yes
Delete leading and trailing silent blocks : No
Installed external ASPI interface

Track 1
Filename F:\UPLOAD\STATUS QUO\Status Quo – Live (1977) [FLAC] {2-disc set}\Disc 1of1\01 – Junior’s Wailing.wav

Pre-gap length 0:00:02.00

Peak level 97.7 %
Track quality 100.0 %
Test CRC CDEB0367
Copy CRC CDEB0367
Copy OK

Track 2
Filename F:\UPLOAD\STATUS QUO\Status Quo – Live (1977) [FLAC] {2-disc set}\Disc 1of1\02 – Backwater,Just Take Me.wav

Peak level 97.7 %
Track quality 100.0 %
Test CRC 1A3574B5
Copy CRC 1A3574B5
Copy OK

Track 3
Filename F:\UPLOAD\STATUS QUO\Status Quo – Live (1977) [FLAC] {2-disc set}\Disc 1of1\03 – Is There A Better Way.wav

Peak level 97.7 %
Track quality 100.0 %
Test CRC D02EA476
Copy CRC D02EA476
Copy OK

Track 4
Filename F:\UPLOAD\STATUS QUO\Status Quo – Live (1977) [FLAC] {2-disc set}\Disc 1of1\04 – In My Chair.wav

Peak level 97.7 %
Track quality 100.0 %
Test CRC 2CF942B2
Copy CRC 2CF942B2
Copy OK

Track 5
Filename F:\UPLOAD\STATUS QUO\Status Quo – Live (1977) [FLAC] {2-disc set}\Disc 1of1\05 – Little Lady,Most Of The Time.wav

Peak level 97.7 %
Track quality 100.0 %
Test CRC 46CA0001
Copy CRC 46CA0001
Copy OK

Track 6
Filename F:\UPLOAD\STATUS QUO\Status Quo – Live (1977) [FLAC] {2-disc set}\Disc 1of1\06 – Rain.wav

Peak level 97.7 %
Track quality 100.0 %
Test CRC C30831AA
Copy CRC C30831AA
Copy OK

Track 7
Filename F:\UPLOAD\STATUS QUO\Status Quo – Live (1977) [FLAC] {2-disc set}\Disc 1of1\07 – Forty Five Hundred Times.wav

Peak level 97.7 %
Track quality 100.0 %
Test CRC B18E9799
Copy CRC B18E9799
Copy OK

No errors occured

End of status report

EAC extraction logfile from 12. December 2006, 19:02 for CD
Status Quo / Live, Vol. 2

Used drive : _NEC DVD_RW ND-3500AG Adapter: 0 ID: 1
Read mode : Secure with NO C2, accurate stream, disable cache
Read offset correction : 48
Overread into Lead-In and Lead-Out : No

Used output format : Internal WAV Routines
44.100 Hz; 16 Bit; Stereo

Other options :
Fill up missing offset samples with silence : Yes
Delete leading and trailing silent blocks : No
Installed external ASPI interface

Track 1
Filename F:\UPLOAD\STATUS QUO\Status Quo – Live (1977) [FLAC] {2-disc set}\Disc 2of2\01 – Roll Over Lay Down.wav

Pre-gap length 0:00:02.00

Peak level 97.7 %
Track quality 99.9 %
Test CRC 3E87E239
Copy CRC 3E87E239
Copy OK

Track 2
Filename F:\UPLOAD\STATUS QUO\Status Quo – Live (1977) [FLAC] {2-disc set}\Disc 2of2\02 – Big Fat Mama.wav

Peak level 97.7 %
Track quality 99.9 %
Test CRC 1AFDF51D
Copy CRC 1AFDF51D
Copy OK

Track 3
Filename F:\UPLOAD\STATUS QUO\Status Quo – Live (1977) [FLAC] {2-disc set}\Disc 2of2\03 – Don’t Waste My Time.wav

Peak level 97.7 %
Track quality 100.0 %
Test CRC A7D7C8CF
Copy CRC A7D7C8CF
Copy OK

Track 4
Filename F:\UPLOAD\STATUS QUO\Status Quo – Live (1977) [FLAC] {2-disc set}\Disc 2of2\04 – Roadhouse Blues.wav

Peak level 97.7 %
Track quality 99.9 %
Test CRC 5B8453C1
Copy CRC 5B8453C1
Copy OK

Track 5
Filename F:\UPLOAD\STATUS QUO\Status Quo – Live (1977) [FLAC] {2-disc set}\Disc 2of2\05 – Caroline.wav

Peak level 97.7 %
Track quality 100.0 %
Test CRC 9CB9757B
Copy CRC 9CB9757B
Copy OK

Track 6
Filename F:\UPLOAD\STATUS QUO\Status Quo – Live (1977) [FLAC] {2-disc set}\Disc 2of2\06 – Bye Bye Johnny.wav

Peak level 97.7 %
Track quality 100.0 %
Test CRC 629C3705
Copy CRC 629C3705
Copy OK

No errors occured

End of status report

REM DISCID 460BDB07
REM COMMENT “ExactAudioCopy v0.95b3”
PERFORMER “Status Quo”
TITLE “Live, Vol. 1”
FILE “01 – Junior’s Wailing.wav” WAVE
TRACK 01 AUDIO
TITLE “Junior’s Wailing”
PERFORMER “Status Quo”
INDEX 01 00:00:00
FILE “02 – Backwater,Just Take Me.wav” WAVE
TRACK 02 AUDIO
TITLE “Backwater/Just Take Me”
PERFORMER “Status Quo”
INDEX 01 00:00:00
FILE “03 – Is There A Better Way.wav” WAVE
TRACK 03 AUDIO
TITLE “Is There A Better Way”
PERFORMER “Status Quo”
INDEX 01 00:00:00
FILE “04 – In My Chair.wav” WAVE
TRACK 04 AUDIO
TITLE “In My Chair”
PERFORMER “Status Quo”
INDEX 01 00:00:00
FILE “05 – Little Lady,Most Of The Time.wav” WAVE
TRACK 05 AUDIO
TITLE “Little Lady/Most Of The Time”
PERFORMER “Status Quo”
INDEX 01 00:00:00
FILE “06 – Rain.wav” WAVE
TRACK 06 AUDIO
TITLE “Rain”
PERFORMER “Status Quo”
INDEX 01 00:00:00
FILE “07 – Forty Five Hundred Times.wav” WAVE
TRACK 07 AUDIO
TITLE “Forty Five Hundred Times”
PERFORMER “Status Quo”
INDEX 01 00:00:00

REM DISCID 5E0A1206
REM COMMENT “ExactAudioCopy v0.95b3″
PERFORMER ” Status Quo”
TITLE “Live, Vol. 2”
FILE “01 – Roll Over Lay Down.wav” WAVE
TRACK 01 AUDIO
TITLE “Roll Over Lay Down”
PERFORMER ” Status Quo”
INDEX 01 00:00:00
FILE “02 – Big Fat Mama.wav” WAVE
TRACK 02 AUDIO
TITLE “Big Fat Mama”
PERFORMER ” Status Quo”
INDEX 01 00:00:00
FILE “03 – Don’t Waste My Time.wav” WAVE
TRACK 03 AUDIO
TITLE “Don’t Waste My Time”
PERFORMER ” Status Quo”
INDEX 01 00:00:00
FILE “04 – Roadhouse Blues.wav” WAVE
TRACK 04 AUDIO
TITLE “Roadhouse Blues”
PERFORMER ” Status Quo”
INDEX 01 00:00:00
FILE “05 – Caroline.wav” WAVE
TRACK 05 AUDIO
TITLE “Caroline”
PERFORMER ” Status Quo”
INDEX 01 00:00:00
FILE “06 – Bye Bye Johnny.wav” WAVE
TRACK 06 AUDIO
TITLE “Bye Bye Johnny”
PERFORMER ” Status Quo”
INDEX 01 00:00:00


0

Publication author

offline 15 hours

Chaos

3
Comments: 4Publics: 3418Registration: 02-02-2019
Spread the Download

Leave a Reply

Your email address will not be published. Required fields are marked *

Enter the text from the image below
 

This site uses Akismet to reduce spam. Learn how your comment data is processed.