Status Quo – Just Supposin’… (Remastered)




No Cover available


Artist: Status Quo
Year: 1980/2005
Genre: Rock
Notes: Discogs
Add. Notes: Remastered
Watch Songs on: YouTube
Cover incl.: Yes
Encoder: FLAC
Bitrate: ~1000 kBit/s (44.1 kHz/16 Bit/s)
Log & Cue incl.: Yes/Yes
Size: 362,2 MB
Password: “slam” (without ” “)


All Downloads/Hosters are compatible

Download 1
KatFile.com
Turbobit.net
Rapidgator.net
FileFactory.com
Download 2
KatFile.com
Turbobit.net
Rapidgator.net
FileFactory.com

Tracklist:

1 What You're Proposing 4:16
2 Run To Mummy 3:09
3 Don't Drive My Car 4:37
4 Lies 3:56
5 Over The Edge 4:29
6 The Wild Ones 4:00
7 Name Of The Game 4:31
8 Coming And Going 6:29
9 Rock 'N' Roll 5:33

Bonus Track
10 AB Blues 4:33

EAC-Log, CUE-Sheed & NFO:

Click to open spoiler
EAC extraction logfile from 18. November 2006, 8:18 for CD
Status Quo / Just Supposin’

Used drive : _NEC DVD_RW ND-3500AG Adapter: 0 ID: 1
Read mode : Secure with NO C2, accurate stream, disable cache
Read offset correction : 48
Overread into Lead-In and Lead-Out : No

Used output format : Internal WAV Routines
44.100 Hz; 16 Bit; Stereo

Other options :
Fill up missing offset samples with silence : Yes
Delete leading and trailing silent blocks : No
Installed external ASPI interface

Track 1
Filename H:\STATUS QUO\Status Quo – Just Supposin’ (1980) [FLAC] {2005 re-issue, bonus tracks}\01 – What You’re Proposing.wav

Pre-gap length 0:00:02.00

Peak level 97.7 %
Track quality 99.9 %
Test CRC 7DB37895
Copy CRC 7DB37895
Copy OK

Track 2
Filename H:\STATUS QUO\Status Quo – Just Supposin’ (1980) [FLAC] {2005 re-issue, bonus tracks}\02 – Run To Mummy.wav

Peak level 97.7 %
Track quality 100.0 %
Test CRC 550EF100
Copy CRC 550EF100
Copy OK

Track 3
Filename H:\STATUS QUO\Status Quo – Just Supposin’ (1980) [FLAC] {2005 re-issue, bonus tracks}\03 – Don’t Drive My Car.wav

Pre-gap length 0:00:00.01

Peak level 97.7 %
Track quality 100.0 %
Test CRC 0DF95B6B
Copy CRC 0DF95B6B
Copy OK

Track 4
Filename H:\STATUS QUO\Status Quo – Just Supposin’ (1980) [FLAC] {2005 re-issue, bonus tracks}\04 – Lies.wav

Pre-gap length 0:00:00.01

Peak level 97.7 %
Track quality 100.0 %
Test CRC 992185CC
Copy CRC 992185CC
Copy OK

Track 5
Filename H:\STATUS QUO\Status Quo – Just Supposin’ (1980) [FLAC] {2005 re-issue, bonus tracks}\05 – Over The Edge.wav

Pre-gap length 0:00:00.01

Peak level 97.7 %
Track quality 100.0 %
Test CRC 0CC22EA3
Copy CRC 0CC22EA3
Copy OK

Track 6
Filename H:\STATUS QUO\Status Quo – Just Supposin’ (1980) [FLAC] {2005 re-issue, bonus tracks}\06 – The Wild Ones.wav

Pre-gap length 0:00:00.01

Peak level 97.7 %
Track quality 99.9 %
Test CRC 945F8F1F
Copy CRC 945F8F1F
Copy OK

Track 7
Filename H:\STATUS QUO\Status Quo – Just Supposin’ (1980) [FLAC] {2005 re-issue, bonus tracks}\07 – Name Of The Game.wav

Peak level 97.7 %
Track quality 99.9 %
Test CRC C78D3312
Copy CRC C78D3312
Copy OK

Track 8
Filename H:\STATUS QUO\Status Quo – Just Supposin’ (1980) [FLAC] {2005 re-issue, bonus tracks}\08 – Coming And Going.wav

Pre-gap length 0:00:00.01

Peak level 97.7 %
Track quality 100.0 %
Test CRC A4A8C450
Copy CRC A4A8C450
Copy OK

Track 9
Filename H:\STATUS QUO\Status Quo – Just Supposin’ (1980) [FLAC] {2005 re-issue, bonus tracks}\09 – Rock ‘N’ Roll.wav

Pre-gap length 0:00:00.01

Peak level 97.7 %
Track quality 100.0 %
Test CRC 70C13AA4
Copy CRC 70C13AA4
Copy OK

Track 10
Filename H:\STATUS QUO\Status Quo – Just Supposin’ (1980) [FLAC] {2005 re-issue, bonus tracks}\10 – AB Blues.wav

Pre-gap length 0:00:00.01

Peak level 97.7 %
Track quality 100.0 %
Test CRC D636CF87
Copy CRC D636CF87
Copy OK

No errors occured

End of status report

REM DATE 1980
REM DISCID 8C0AC40A
REM COMMENT “ExactAudioCopy v0.95b3″
PERFORMER ” Status Quo”
TITLE “Just Supposin'”
FILE “01 – What You’re Proposing.wav” WAVE
TRACK 01 AUDIO
TITLE “What You’re Proposing”
PERFORMER ” Status Quo”
INDEX 01 00:00:00
FILE “02 – Run To Mummy.wav” WAVE
TRACK 02 AUDIO
TITLE “Run To Mummy”
PERFORMER ” Status Quo”
INDEX 01 00:00:00
TRACK 03 AUDIO
TITLE “Don’t Drive My Car”
PERFORMER ” Status Quo”
INDEX 00 03:12:45
FILE “03 – Don’t Drive My Car.wav” WAVE
INDEX 01 00:00:00
TRACK 04 AUDIO
TITLE “Lies”
PERFORMER ” Status Quo”
INDEX 00 04:38:62
FILE “04 – Lies.wav” WAVE
INDEX 01 00:00:00
TRACK 05 AUDIO
TITLE “Over The Edge”
PERFORMER ” Status Quo”
INDEX 00 04:03:06
FILE “05 – Over The Edge.wav” WAVE
INDEX 01 00:00:00
TRACK 06 AUDIO
TITLE “The Wild Ones”
PERFORMER ” Status Quo”
INDEX 00 04:32:60
FILE “06 – The Wild Ones.wav” WAVE
INDEX 01 00:00:00
FILE “07 – Name Of The Game.wav” WAVE
TRACK 07 AUDIO
TITLE “Name Of The Game”
PERFORMER ” Status Quo”
INDEX 01 00:00:00
TRACK 08 AUDIO
TITLE “Coming And Going”
PERFORMER ” Status Quo”
INDEX 00 04:36:45
FILE “08 – Coming And Going.wav” WAVE
INDEX 01 00:00:00
TRACK 09 AUDIO
TITLE “Rock ‘N’ Roll”
PERFORMER ” Status Quo”
INDEX 00 06:33:07
FILE “09 – Rock ‘N’ Roll.wav” WAVE
INDEX 01 00:00:00
TRACK 10 AUDIO
TITLE “AB Blues”
PERFORMER ” Status Quo”
INDEX 00 05:28:21
FILE “10 – AB Blues.wav” WAVE
INDEX 01 00:00:00


0

Publication author

offline 4 days

Chaos

3
Comments: 4Publics: 3565Registration: 02-02-2019
Spread the Download

Leave a Reply

Your email address will not be published. Required fields are marked *

Enter the text from the image below
 

This site uses Akismet to reduce spam. Learn how your comment data is processed.