Status Quo – If You Can’t Stand The Heat (Remastered)




No Cover available

Artist: Status Quo
Year: 2005
Genre: Rock
Notes: Discogs
Add. Notes: Remastered
Watch Songs on: YouTube
Cover incl.: Yes
Encoder: FLAC
Bitrate: ~1000 kBit/s (44.1 kHz/16 Bit/s)
Log & Cue incl.: Yes/Yes
Size: 331,1 MB
Password: “slam” (without ” “)


All Downloads/Hosters are compatible

Download 1
KatFile.com
Turbobit.net
Rapidgator.net
FileFactory.com
Download 2
KatFile.com
Turbobit.net
Rapidgator.net
FileFactory.com

Tracklist:

1 Again And Again 3:40
2 I'm Giving Up My Worryin' 3:03
3 Gonna Teach You To Love Me 3:09
4 Someone Show Me Home 3:51
5 Long Legged Linda 3:29
6 Oh! What A Night 3:45
7 Accident Prone 5:05
8 Stones 3:57
9 Let Me Fly 4:22
10 Like A Good Girl 3:28

Bonus Track:
11 Accident Prone (Single Version) 4:07

EAC-Log, CUE-Sheed & NFO:

Click to open spoiler
EAC extraction logfile from 18. December 2006, 9:51 for
CD
Status Quo / If You Can’t Stand The Heat

Used drive : _NEC DVD_RW ND-3500AG Adapter: 0
ID: 1
Read mode : Secure with NO C2, accurate stream,
disable cache
Read offset correction : 48
Overread into Lead-In and Lead-Out : No

Used output format : Internal WAV Routines
44.100 Hz; 16 Bit; Stereo

Other options :
Fill up missing offset samples with silence : Yes
Delete leading and trailing silent blocks : No
Installed external ASPI interface

Track 1
Filename F:\UPLOAD\STATUS QUO\Status Quo – If
You Can’t Stand The Heat (1978) [FLAC] {2005 reissue,
bonus track}\01 – Again And Again.wav

Pre-gap length 0:00:02.00

Peak level 97.7 %
Track quality 100.0 %
Test CRC 0672653F
Copy CRC 0672653F
Copy OK

Track 2
Filename F:\UPLOAD\STATUS QUO\Status Quo – If
You Can’t Stand The Heat (1978) [FLAC] {2005 reissue,
bonus track}\02 – I’m Giving Up My Worryin’.wav

Peak level 97.7 %
Track quality 99.9 %
Test CRC 42E18A37
Copy CRC 42E18A37
Copy OK

Track 3
Filename F:\UPLOAD\STATUS QUO\Status Quo – If
You Can’t Stand The Heat (1978) [FLAC] {2005 reissue,
bonus track}\03 – Gonna Teach You To Love Me.wav

Peak level 97.7 %
Track quality 99.9 %
Test CRC 53CDB663
Copy CRC 53CDB663
Copy OK

Track 4
Filename F:\UPLOAD\STATUS QUO\Status Quo – If
You Can’t Stand The Heat (1978) [FLAC] {2005 reissue,
bonus track}\04 – Someone Show Me Home.wav

Peak level 97.7 %
Track quality 100.0 %
Test CRC 995E5BF0
Copy CRC 995E5BF0
Copy OK

Track 5
Filename F:\UPLOAD\STATUS QUO\Status Quo – If
You Can’t Stand The Heat (1978) [FLAC] {2005 reissue,
bonus track}\05 – Long Legged Linda.wav

Peak level 97.7 %
Track quality 100.0 %
Test CRC 7FB404BA
Copy CRC 7FB404BA
Copy OK

Track 6
Filename F:\UPLOAD\STATUS QUO\Status Quo – If
You Can’t Stand The Heat (1978) [FLAC] {2005 reissue,
bonus track}\06 – Oh! What A Night.wav

Peak level 97.7 %
Track quality 100.0 %
Test CRC 4DB7AAD0
Copy CRC 4DB7AAD0
Copy OK

Track 7
Filename F:\UPLOAD\STATUS QUO\Status Quo – If
You Can’t Stand The Heat (1978) [FLAC] {2005 reissue,
bonus track}\07 – Accident Prone.wav

Peak level 97.7 %
Track quality 99.9 %
Test CRC CC183C53
Copy CRC CC183C53
Copy OK

Track 8
Filename F:\UPLOAD\STATUS QUO\Status Quo – If
You Can’t Stand The Heat (1978) [FLAC] {2005 reissue,
bonus track}\08 – Stones.wav

Peak level 97.7 %
Track quality 100.0 %
Test CRC E2522854
Copy CRC E2522854
Copy OK

Track 9
Filename F:\UPLOAD\STATUS QUO\Status Quo – If
You Can’t Stand The Heat (1978) [FLAC] {2005 reissue,
bonus track}\09 – Let Me Fly.wav

Peak level 97.7 %
Track quality 100.0 %
Test CRC 5573B03D
Copy CRC 5573B03D
Copy OK

Track 10
Filename F:\UPLOAD\STATUS QUO\Status Quo – If
You Can’t Stand The Heat (1978) [FLAC] {2005 reissue,
bonus track}\10 – Like A Good Girl.wav

Peak level 97.7 %
Track quality 99.9 %
Test CRC BFD53BF2
Copy CRC BFD53BF2
Copy OK

Track 11
Filename F:\UPLOAD\STATUS QUO\Status Quo – If
You Can’t Stand The Heat (1978) [FLAC] {2005 reissue,
bonus track}\11 – Accident Prone (single version) [bonus
track].wav

Peak level 97.7 %
Track quality 100.0 %
Test CRC 0327AF56
Copy CRC 0327AF56
Copy OK

No errors occured

End of status report

REM DISCID 8309D90B
REM COMMENT “ExactAudioCopy v0.95b3”
PERFORMER “Status Quo”
TITLE “If You Can’t Stand The Heat”
FILE “01 – Again And Again.flac” WAVE
TRACK 01 AUDIO
TITLE “Again And Again”
PERFORMER “Status Quo”
INDEX 01 00:00:00
FILE “02 – I’m Giving Up My Worryin’.flac” WAVE
TRACK 02 AUDIO
TITLE “I’m Giving Up My Worryin'”
PERFORMER “Status Quo”
INDEX 01 00:00:00
FILE “03 – Gonna Teach You To Love Me.flac” WAVE
TRACK 03 AUDIO
TITLE “Gonna Teach You To Love Me”
PERFORMER “Status Quo”
INDEX 01 00:00:00
FILE “04 – Someone Show Me Home.flac” WAVE
TRACK 04 AUDIO
TITLE “Someone Show Me Home”
PERFORMER “Status Quo”
INDEX 01 00:00:00
FILE “05 – Long Legged Linda.flac” WAVE
TRACK 05 AUDIO
TITLE “Long Legged Linda”
PERFORMER “Status Quo”
INDEX 01 00:00:00
FILE “06 – Oh! What A Night.flac” WAVE
TRACK 06 AUDIO
TITLE “Oh! What A Night”
PERFORMER “Status Quo”
INDEX 01 00:00:00
FILE “07 – Accident Prone.flac” WAVE
TRACK 07 AUDIO
TITLE “Accident Prone”
PERFORMER “Status Quo”
INDEX 01 00:00:00
FILE “08 – Stones.flac” WAVE
TRACK 08 AUDIO
TITLE “Stones”
PERFORMER “Status Quo”
INDEX 01 00:00:00
FILE “09 – Let Me Fly.flac” WAVE
TRACK 09 AUDIO
TITLE “Let Me Fly”
PERFORMER “Status Quo”
INDEX 01 00:00:00
FILE “10 – Like A Good Girl.flac” WAVE
TRACK 10 AUDIO
TITLE “Like A Good Girl”
PERFORMER “Status Quo”
INDEX 01 00:00:00
FILE “11 – Accident Prone (single version) [bonus
track].flac” WAVE
TRACK 11 AUDIO
TITLE “Accident Prone (single version) [bonus track]”
PERFORMER “Status Quo”
INDEX 01 00:00:00


0

Publication author

offline 5 days

Chaos

3
Comments: 4Publics: 3565Registration: 02-02-2019
Spread the Download

Leave a Reply

Your email address will not be published. Required fields are marked *

Enter the text from the image below
 

This site uses Akismet to reduce spam. Learn how your comment data is processed.