Soundgarden – Ultramega OK




No Cover available

Artist: Soundgarden
Year: 1988
Genre: Rock
Notes: Discogs
Add. Notes:
Watch Songs on: YouTube
Cover incl.: Yes
Encoder: FLAC
Bitrate: ~800 kBit/s (44.1 kHz/16 Bit/s)
Log & Cue incl.: Yes/Yes
Size: 267,3 MB
Password: “slam” (without ” “)


All Downloads/Hosters are compatible

Download 1
KatFile.com
Turbobit.net
FileFactory.com
Rapidgator.net
Download 2
KatFile.com
Turbobit.net
FileFactory.com
Rapidgator.net

Tracklist:

1 Flower 3:25
2 All Your Lies 3:51
3 665 1:37
4 Beyond The Wheel 4:20
5 667 0:56
6 Mood For Trouble 4:21
7 Circle Of Power 2:05
8 He Didn't 2:47
9 Smokestack Lightning 5:07
10 Nazi Driver 3:52
11 Head Injury 2:22
12 Incessant Mace 6:22
13 One Minute Of Silence 1:00

EAC-Log, CUE-Sheed & NFO:

Click to open spoiler
EAC extraction logfile from 2. June 2006, 17:50 for CD
Soundgarden / Ultramega OK

Used drive : PIONEER DVD-RW DVR-110D Adapter: 1 ID: 1
Read mode : Secure with NO C2, accurate stream, disable cache
Read offset correction : 48
Overread into Lead-In and Lead-Out : No

Used output format : Internal WAV Routines
44.100 Hz; 16 Bit; Stereo

Other options :
Fill up missing offset samples with silence : Yes
Delete leading and trailing silent blocks : No
Native Win32 interface for Win NT & 2000

Track 1
Filename D:\Torrent Downloads\Uploads\Soundgarden – Ultramega OK (1988) [FLAC]\01 – Flower.wav

Pre-gap length 0:00:02.37

Peak level 84.5 %
Track quality 100.0 %
Test CRC A7472177
Copy CRC A7472177
Copy OK

Track 2
Filename D:\Torrent Downloads\Uploads\Soundgarden – Ultramega OK (1988) [FLAC]\02 – All Your Lies.wav

Pre-gap length 0:00:02.32

Peak level 99.9 %
Track quality 100.0 %
Test CRC 17D5DE24
Copy CRC 17D5DE24
Copy OK

Track 3
Filename D:\Torrent Downloads\Uploads\Soundgarden – Ultramega OK (1988) [FLAC]\03 – 665.wav

Pre-gap length 0:00:00.58

Peak level 86.2 %
Track quality 99.8 %
Test CRC 9E82E772
Copy CRC 9E82E772
Copy OK

Track 4
Filename D:\Torrent Downloads\Uploads\Soundgarden – Ultramega OK (1988) [FLAC]\04 – Beyond The Wheel.wav

Pre-gap length 0:00:00.01

Peak level 91.5 %
Track quality 100.0 %
Test CRC CFADEEBB
Copy CRC CFADEEBB
Copy OK

Track 5
Filename D:\Torrent Downloads\Uploads\Soundgarden – Ultramega OK (1988) [FLAC]\05 – 667.wav

Pre-gap length 0:00:00.22

Peak level 67.5 %
Track quality 100.0 %
Test CRC 116306FC
Copy CRC 116306FC
Copy OK

Track 6
Filename D:\Torrent Downloads\Uploads\Soundgarden – Ultramega OK (1988) [FLAC]\06 – Mood For Trouble.wav

Pre-gap length 0:00:07.33

Peak level 77.6 %
Track quality 100.0 %
Test CRC 7ADB6671
Copy CRC 7ADB6671
Copy OK

Track 7
Filename D:\Torrent Downloads\Uploads\Soundgarden – Ultramega OK (1988) [FLAC]\07 – Circle Of Power.wav

Pre-gap length 0:00:02.26

Peak level 92.9 %
Track quality 100.0 %
Test CRC C2DA48BE
Copy CRC C2DA48BE
Copy OK

Track 8
Filename D:\Torrent Downloads\Uploads\Soundgarden – Ultramega OK (1988) [FLAC]\08 – He Didn’t.wav

Pre-gap length 0:00:00.50

Peak level 73.6 %
Track quality 100.0 %
Test CRC 37A4D5D2
Copy CRC 37A4D5D2
Copy OK

Track 9
Filename D:\Torrent Downloads\Uploads\Soundgarden – Ultramega OK (1988) [FLAC]\09 – Smokestack Lightning.wav

Pre-gap length 0:00:02.61

Peak level 90.7 %
Track quality 100.0 %
Test CRC 9DEEE1D5
Copy CRC 9DEEE1D5
Copy OK

Track 10
Filename D:\Torrent Downloads\Uploads\Soundgarden – Ultramega OK (1988) [FLAC]\10 – Nazi Driver.wav

Peak level 71.1 %
Track quality 100.0 %
Test CRC C484D003
Copy CRC C484D003
Copy OK

Track 11
Filename D:\Torrent Downloads\Uploads\Soundgarden – Ultramega OK (1988) [FLAC]\11 – Head Injury.wav

Pre-gap length 0:00:04.27

Peak level 96.9 %
Track quality 100.0 %
Test CRC 9DB3A5B2
Copy CRC 9DB3A5B2
Copy OK

Track 12
Filename D:\Torrent Downloads\Uploads\Soundgarden – Ultramega OK (1988) [FLAC]\12 – Incessant Mace.wav

Pre-gap length 0:00:03.69

Peak level 99.7 %
Track quality 100.0 %
Test CRC D95EB8C3
Copy CRC D95EB8C3
Copy OK

Track 13
Filename D:\Torrent Downloads\Uploads\Soundgarden – Ultramega OK (1988) [FLAC]\13 – One Minute Of Silence.wav

Pre-gap length 0:00:04.17

Peak level 89.9 %
Track quality 100.0 %
Test CRC 005DA358
Copy CRC 005DA358
Copy OK

No errors occured

End of status report

REM GENRE “Hard Rock”
REM DATE 1988
REM DISCID 9C0A090D
REM COMMENT “ExactAudioCopy v0.95b3”
PERFORMER “Soundgarden”
TITLE “Ultramega OK”
FILE “01 – Flower.wav” WAVE
TRACK 01 AUDIO
TITLE “Flower”
PERFORMER “Soundgarden”
PREGAP 00:00:37
INDEX 01 00:00:00
TRACK 02 AUDIO
TITLE “All Your Lies”
PERFORMER “Soundgarden”
INDEX 00 03:27:11
FILE “02 – All Your Lies.wav” WAVE
INDEX 01 00:00:00
TRACK 03 AUDIO
TITLE “665”
PERFORMER “Soundgarden”
INDEX 00 03:51:09
FILE “03 – 665.wav” WAVE
INDEX 01 00:00:00
TRACK 04 AUDIO
TITLE “Beyond The Wheel”
PERFORMER “Soundgarden”
INDEX 00 01:37:22
FILE “04 – Beyond The Wheel.wav” WAVE
INDEX 01 00:00:00
TRACK 05 AUDIO
TITLE “667”
PERFORMER “Soundgarden”
INDEX 00 04:21:45
FILE “05 – 667.wav” WAVE
INDEX 01 00:00:00
TRACK 06 AUDIO
TITLE “Mood For Trouble”
PERFORMER “Soundgarden”
INDEX 00 00:56:65
FILE “06 – Mood For Trouble.wav” WAVE
INDEX 01 00:00:00
TRACK 07 AUDIO
TITLE “Circle Of Power”
PERFORMER “Soundgarden”
INDEX 00 04:23:16
FILE “07 – Circle Of Power.wav” WAVE
INDEX 01 00:00:00
TRACK 08 AUDIO
TITLE “He Didn’t”
PERFORMER “Soundgarden”
INDEX 00 02:05:48
FILE “08 – He Didn’t.wav” WAVE
INDEX 01 00:00:00
TRACK 09 AUDIO
TITLE “Smokestack Lightning”
PERFORMER “Soundgarden”
INDEX 00 02:47:74
FILE “09 – Smokestack Lightning.wav” WAVE
INDEX 01 00:00:00
FILE “10 – Nazi Driver.wav” WAVE
TRACK 10 AUDIO
TITLE “Nazi Driver”
PERFORMER “Soundgarden”
INDEX 01 00:00:00
TRACK 11 AUDIO
TITLE “Head Injury”
PERFORMER “Soundgarden”
INDEX 00 03:53:41
FILE “11 – Head Injury.wav” WAVE
INDEX 01 00:00:00
TRACK 12 AUDIO
TITLE “Incessant Mace”
PERFORMER “Soundgarden”
INDEX 00 02:22:28
FILE “12 – Incessant Mace.wav” WAVE
INDEX 01 00:00:00
TRACK 13 AUDIO
TITLE “One Minute Of Silence”
PERFORMER “Soundgarden”
INDEX 00 06:22:66
FILE “13 – One Minute Of Silence.wav” WAVE
INDEX 01 00:00:00


Leave a Reply

Your email address will not be published. Required fields are marked *

This site uses Akismet to reduce spam. Learn how your comment data is processed.