Soundgarden – Superunknown




No Cover available

Artist: Soundgarden
Year: 1994
Genre: Rock
Notes: Discogs
Add. Notes:
Watch Songs on: YouTube
Cover incl.: Yes
Encoder: FLAC
Bitrate: ~900 kBit/s (44.1 kHz/16 Bit/s)
Log & Cue incl.: Yes/Yes
Size: 466,8 MB
Password: “slam” (without ” “)


All Downloads/Hosters are compatible

Download 1
KatFile.com
Turbobit.net
Rapidgator.net
FileFactory.com
Download 2
KatFile.com
Turbobit.net
Rapidgator.net
FileFactory.com

Tracklist:

1 Let Me Drown 
2 My Wave 
3 Fell On Black Days 
4 Mailman 
5 Superunknown 
6 Head Down 
7 Black Hole Sun 
8 Spoonman 
9 Limo Wreck 
10 The Day I Tried To Live 
11 Kickstand 
12 Fresh Tendrils 
13 4th Of July 
14 Half 
15 Like Suicide

EAC-Log, CUE-Sheed & NFO:

Click to open spoiler
Exact Audio Copy V0.99 prebeta 4 from 23. January 2008

EAC extraction logfile from 23. April 2009, 20:54

Soundgarden / Superunknown

Used drive : HL-DT-STDVDRAM GSA-T20L Adapter: 1 ID: 0

Read mode : Secure
Utilize accurate stream : Yes
Defeat audio cache : Yes
Make use of C2 pointers : No

Read offset correction : 667
Overread into Lead-In and Lead-Out : No
Fill up missing offset samples with silence : Yes
Delete leading and trailing silent blocks : No
Null samples used in CRC calculations : Yes
Used interface : Native Win32 interface for Win NT & 2000
Gap handling : Appended to previous track

Used output format : User Defined Encoder
Selected bitrate : 128 kBit/s
Quality : High
Add ID3 tag : No
Command line compressor : C:\Program Files\Exact Audio Copy\Flac\flac.exe
Additional command line options : -V -8 -T “artist=%a” -T “title=%t” -T “album=%g” -T “date=%y” -T “tracknumber=%n” -T “genre=%m” %s

TOC of the extracted CD

Track | Start | Length | Start sector | End sector
———————————————————
1 | 0:00.32 | 3:51.73 | 32 | 17429
2 | 3:52.30 | 5:12.00 | 17430 | 40829
3 | 9:04.30 | 4:42.32 | 40830 | 62011
4 | 13:46.62 | 4:25.60 | 62012 | 81946
5 | 18:12.47 | 5:06.23 | 81947 | 104919
6 | 23:18.70 | 6:08.72 | 104920 | 132591
7 | 29:27.67 | 5:18.03 | 132592 | 156444
8 | 34:45.70 | 4:06.27 | 156445 | 174921
9 | 38:52.22 | 5:47.23 | 174922 | 200969
10 | 44:39.45 | 5:19.35 | 200970 | 224929
11 | 49:59.05 | 1:34.10 | 224930 | 231989
12 | 51:33.15 | 4:16.00 | 231990 | 251189
13 | 55:49.15 | 5:08.22 | 251190 | 274311
14 | 60:57.37 | 2:14.23 | 274312 | 284384
15 | 63:11.60 | 7:01.62 | 284385 | 316021

Track 1

Filename D:\uTorrent\EAC Rips\Soundgarden – Superunknown\01 – Let Me Drown.wav

Pre-gap length 0:00:02.42

Peak level 95.3 %
Track quality 100.0 %
Test CRC BA6AC249
Copy CRC BA6AC249
Accurately ripped (confidence 83) [72964811]
Copy OK

Track 2

Filename D:\uTorrent\EAC Rips\Soundgarden – Superunknown\02 – My Wave.wav

Pre-gap length 0:00:01.06

Peak level 95.3 %
Track quality 100.0 %
Test CRC CDCCA25F
Copy CRC CDCCA25F
Accurately ripped (confidence 85) [47A41249]
Copy OK

Track 3

Filename D:\uTorrent\EAC Rips\Soundgarden – Superunknown\03 – Fell on Black Days.wav

Peak level 95.3 %
Track quality 100.0 %
Test CRC 6198F2C0
Copy CRC 6198F2C0
Accurately ripped (confidence 86) [79566439]
Copy OK

Track 4

Filename D:\uTorrent\EAC Rips\Soundgarden – Superunknown\04 – Mailman.wav

Pre-gap length 0:00:00.66

Peak level 95.3 %
Track quality 100.0 %
Test CRC F00A00AC
Copy CRC F00A00AC
Accurately ripped (confidence 81) [ED1E5041]
Copy OK

Track 5

Filename D:\uTorrent\EAC Rips\Soundgarden – Superunknown\05 – Superunknown.wav

Peak level 95.3 %
Track quality 100.0 %
Test CRC D09ECD6D
Copy CRC D09ECD6D
Accurately ripped (confidence 84) [3941BE85]
Copy OK

Track 6

Filename D:\uTorrent\EAC Rips\Soundgarden – Superunknown\06 – Head Down.wav

Peak level 95.3 %
Track quality 100.0 %
Test CRC 69939AD9
Copy CRC 69939AD9
Accurately ripped (confidence 85) [04219A51]
Copy OK

Track 7

Filename D:\uTorrent\EAC Rips\Soundgarden – Superunknown\07 – Black Hole Sun.wav

Peak level 95.3 %
Track quality 100.0 %
Test CRC FF3077E1
Copy CRC FF3077E1
Accurately ripped (confidence 85) [ED12DDCC]
Copy OK

Track 8

Filename D:\uTorrent\EAC Rips\Soundgarden – Superunknown\08 – Spoonman.wav

Peak level 95.3 %
Track quality 99.9 %
Test CRC DAF64E56
Copy CRC DAF64E56
Accurately ripped (confidence 84) [D21BC8F8]
Copy OK

Track 9

Filename D:\uTorrent\EAC Rips\Soundgarden – Superunknown\09 – Limo Wreck.wav

Peak level 95.3 %
Track quality 100.0 %
Test CRC D400E988
Copy CRC D400E988
Accurately ripped (confidence 76) [52FD0BDB]
Copy OK

Track 10

Filename D:\uTorrent\EAC Rips\Soundgarden – Superunknown\10 – The Day I Tried to Live.wav

Peak level 95.3 %
Track quality 99.9 %
Test CRC 8FD7B960
Copy CRC 8FD7B960
Accurately ripped (confidence 79) [9ED48321]
Copy OK

Track 11

Filename D:\uTorrent\EAC Rips\Soundgarden – Superunknown\11 – Kickstand.wav

Peak level 95.3 %
Track quality 100.0 %
Test CRC 134E599D
Copy CRC 134E599D
Accurately ripped (confidence 80) [91CD5FFA]
Copy OK

Track 12

Filename D:\uTorrent\EAC Rips\Soundgarden – Superunknown\12 – Fresh Tendrils.wav

Pre-gap length 0:00:00.53

Peak level 95.3 %
Track quality 99.9 %
Test CRC E0E55993
Copy CRC E0E55993
Accurately ripped (confidence 80) [2C2775FF]
Copy OK

Track 13

Filename D:\uTorrent\EAC Rips\Soundgarden – Superunknown\13 – 4th of July.wav

Pre-gap length 0:00:00.20

Peak level 95.3 %
Track quality 100.0 %
Test CRC 66410B1C
Copy CRC 66410B1C
Accurately ripped (confidence 76) [35DC2648]
Copy OK

Track 14

Filename D:\uTorrent\EAC Rips\Soundgarden – Superunknown\14 – Half.wav

Peak level 95.1 %
Track quality 100.0 %
Test CRC EF04FB4D
Copy CRC EF04FB4D
Accurately ripped (confidence 78) [F8840200]
Copy OK

Track 15

Filename D:\uTorrent\EAC Rips\Soundgarden – Superunknown\15 – Like Suicide.wav

Peak level 95.3 %
Track quality 100.0 %
Test CRC D439C164
Copy CRC D439C164
Accurately ripped (confidence 69) [32746126]
Copy OK

All tracks accurately ripped

No errors occurred

End of status report

REM GENRE Rock
REM DATE 1994
REM DISCID D210750F
REM COMMENT “ExactAudioCopy v0.99pb4”
PERFORMER “Soundgarden”
TITLE “Superunknown”
FILE “01 – Let Me Drown.wav” WAVE
TRACK 01 AUDIO
TITLE “Let Me Drown”
PERFORMER “Soundgarden”
PREGAP 00:00:32
INDEX 01 00:00:00
TRACK 02 AUDIO
TITLE “My Wave”
PERFORMER “Soundgarden”
INDEX 00 03:50:68
FILE “02 – My Wave.wav” WAVE
INDEX 01 00:00:00
FILE “03 – Fell on Black Days.wav” WAVE
TRACK 03 AUDIO
TITLE “Fell on Black Days”
PERFORMER “Soundgarden”
INDEX 01 00:00:00
TRACK 04 AUDIO
TITLE “Mailman”
PERFORMER “Soundgarden”
INDEX 00 04:41:57
FILE “04 – Mailman.wav” WAVE
INDEX 01 00:00:00
FILE “05 – Superunknown.wav” WAVE
TRACK 05 AUDIO
TITLE “Superunknown”
PERFORMER “Soundgarden”
INDEX 01 00:00:00
FILE “06 – Head Down.wav” WAVE
TRACK 06 AUDIO
TITLE “Head Down”
PERFORMER “Soundgarden”
INDEX 01 00:00:00
FILE “07 – Black Hole Sun.wav” WAVE
TRACK 07 AUDIO
TITLE “Black Hole Sun”
PERFORMER “Soundgarden”
INDEX 01 00:00:00
FILE “08 – Spoonman.wav” WAVE
TRACK 08 AUDIO
TITLE “Spoonman”
PERFORMER “Soundgarden”
INDEX 01 00:00:00
FILE “09 – Limo Wreck.wav” WAVE
TRACK 09 AUDIO
TITLE “Limo Wreck”
PERFORMER “Soundgarden”
INDEX 01 00:00:00
FILE “10 – The Day I Tried to Live.wav” WAVE
TRACK 10 AUDIO
TITLE “The Day I Tried to Live”
PERFORMER “Soundgarden”
INDEX 01 00:00:00
FILE “11 – Kickstand.wav” WAVE
TRACK 11 AUDIO
TITLE “Kickstand”
PERFORMER “Soundgarden”
INDEX 01 00:00:00
TRACK 12 AUDIO
TITLE “Fresh Tendrils”
PERFORMER “Soundgarden”
INDEX 00 01:33:45
FILE “12 – Fresh Tendrils.wav” WAVE
INDEX 01 00:00:00
TRACK 13 AUDIO
TITLE “4th of July”
PERFORMER “Soundgarden”
INDEX 00 04:15:60
FILE “13 – 4th of July.wav” WAVE
INDEX 01 00:00:00
FILE “14 – Half.wav” WAVE
TRACK 14 AUDIO
TITLE “Half”
PERFORMER “Soundgarden”
INDEX 01 00:00:00
FILE “15 – Like Suicide.wav” WAVE
TRACK 15 AUDIO
TITLE “Like Suicide”
PERFORMER “Soundgarden”
INDEX 01 00:00:00


Leave a Reply

Your email address will not be published. Required fields are marked *

Enter the text from the image below
 

This site uses Akismet to reduce spam. Learn how your comment data is processed.