Soundgarden – Superunknown (Japanese Edition)




No Cover available

Artist: Soundgarden
Year: 1994
Genre: Punk
Notes: Discogs
Add. Notes: Japanese Edition
Watch Songs on: YouTube
Cover incl.: Yes
Encoder: APE
Bitrate: ~900 kBit/s (44.1 kHz/16 Bit/s)
Log & Cue incl.: Yes/Yes
Size: 480,5 MB
Password: “slam” (without ” “)


All Downloads/Hosters are compatible

Download 1
KatFile.com
Turbobit.net
Rapidgator.net
FileFactory.com
Download 2
KatFile.com
Turbobit.net
Rapidgator.net
FileFactory.com

Tracklist:

1 Let Me Drown 
2 My Wave 
3 Fell On Black Days 
4 Mailman 
5 Superunknown 
6 Head Down 
7 Black Hole Sun 
8 Spoonman 
9 Limo Wreck 
10 The Day I Tried To Live 
11 Kickstand 
12 Fresh Tendrils 
13 4th Of July 
14 Half 
15 Like Suicide 
16 She Likes Surprises

EAC-Log, CUE-Sheed & NFO:

Click to open spoiler
Exact Audio Copy V0.99 prebeta 5 from 4. May 2009

EAC extraction logfile from 3. October 2009, 3:52

Soundgarden / Superunknown

Used drive : SAMSUNG CD-ROM SC-148A Adapter: 1 ID: 1

Read mode : Secure
Utilize accurate stream : Yes
Defeat audio cache : Yes
Make use of C2 pointers : No

Read offset correction : 12
Overread into Lead-In and Lead-Out : Yes
Fill up missing offset samples with silence : Yes
Delete leading and trailing silent blocks : No
Null samples used in CRC calculations : Yes
Used interface : Native Win32 interface for Win NT & 2000

Used output format : Internal WAV Routines
Sample format : 44.100 Hz; 16 Bit; Stereo

TOC of the extracted CD

Track | Start | Length | Start sector | End sector
———————————————————
1 | 0:00.37 | 3:52.10 | 37 | 17446
2 | 3:52.47 | 5:11.60 | 17447 | 40831
3 | 9:04.32 | 4:42.47 | 40832 | 62028
4 | 13:47.04 | 4:25.45 | 62029 | 81948
5 | 18:12.49 | 5:06.35 | 81949 | 104933
6 | 23:19.09 | 6:08.70 | 104934 | 132603
7 | 29:28.04 | 5:17.68 | 132604 | 156446
8 | 34:45.72 | 4:06.27 | 156447 | 174923
9 | 38:52.24 | 5:47.28 | 174924 | 200976
10 | 44:39.52 | 5:19.30 | 200977 | 224931
11 | 49:59.07 | 1:34.22 | 224932 | 232003
12 | 51:33.29 | 4:16.08 | 232004 | 251211
13 | 55:49.37 | 5:08.15 | 251212 | 274326
14 | 60:57.52 | 2:14.10 | 274327 | 284386
15 | 63:11.62 | 7:11.47 | 284387 | 316758
16 | 70:23.34 | 3:17.03 | 316759 | 331536

Range status and errors

Selected range

Filename C:\Soundgarden – 1994 – Superunknown\Soundgarden – 1994 – Superunknown.wav

Peak level 95.3 %
Range quality 99.9 %
Test CRC 0C27703C
Copy CRC 0C27703C
Copy OK

No errors occurred

AccurateRip summary

Track 1 accurately ripped (confidence 2) [D4C282FB]
Track 2 accurately ripped (confidence 2) [955AD619]
Track 3 accurately ripped (confidence 2) [0F63984D]
Track 4 accurately ripped (confidence 2) [789F2222]
Track 5 accurately ripped (confidence 2) [EC13E40A]
Track 6 accurately ripped (confidence 2) [8AA89FDB]
Track 7 accurately ripped (confidence 2) [3BCC9F65]
Track 8 accurately ripped (confidence 2) [445EBC84]
Track 9 accurately ripped (confidence 2) [8794244E]
Track 10 accurately ripped (confidence 2) [D9EDB5F7]
Track 11 accurately ripped (confidence 2) [677744D1]
Track 12 accurately ripped (confidence 2) [1A7E2841]
Track 13 accurately ripped (confidence 2) [DC5C988F]
Track 14 accurately ripped (confidence 2) [DD032CDC]
Track 15 not present in database
Track 16 not present in database

14 track(s) accurately ripped
2 track(s) not present in the AccurateRip database

Some tracks could not be verified as accurate

End of status report

REM GENRE Grunge
REM DATE 1994
REM DISCID D9114410
REM COMMENT 2008 JP SHM-CD / Universal [UICY-91289] / UPC 4988005538277
CATALOG 4988005137807
PERFORMER “Soundgarden”
TITLE “Superunknown”
FILE “Soundgarden – 1994 – Superunknown.ape” WAVE
TRACK 01 AUDIO
TITLE “Let Me Drown”
PERFORMER “Soundgarden”
INDEX 00 00:00:00
INDEX 01 00:00:37
TRACK 02 AUDIO
TITLE “My Wave”
PERFORMER “Soundgarden”
INDEX 00 03:51:40
INDEX 01 03:52:47
TRACK 03 AUDIO
TITLE “Fell On Black Days”
PERFORMER “Soundgarden”
INDEX 01 09:04:32
TRACK 04 AUDIO
TITLE “Mailman”
PERFORMER “Soundgarden”
INDEX 00 13:46:23
INDEX 01 13:47:04
TRACK 05 AUDIO
TITLE “Superunknown”
PERFORMER “Soundgarden”
INDEX 01 18:12:49
TRACK 06 AUDIO
TITLE “Head Down”
PERFORMER “Soundgarden”
INDEX 01 23:19:09
TRACK 07 AUDIO
TITLE “Black Hole Sun”
PERFORMER “Soundgarden”
INDEX 01 29:28:04
TRACK 08 AUDIO
TITLE “Spoonman”
PERFORMER “Soundgarden”
INDEX 01 34:45:72
TRACK 09 AUDIO
TITLE “Limo Wreck”
PERFORMER “Soundgarden”
INDEX 01 38:52:24
TRACK 10 AUDIO
TITLE “The Day I Tried To Live”
PERFORMER “Soundgarden”
INDEX 01 44:39:52
TRACK 11 AUDIO
TITLE “Kickstand”
PERFORMER “Soundgarden”
INDEX 01 49:59:07
TRACK 12 AUDIO
TITLE “Fresh Tendrils”
PERFORMER “Soundgarden”
INDEX 01 51:33:29
TRACK 13 AUDIO
TITLE “4th Of July”
PERFORMER “Soundgarden”
INDEX 01 55:49:37
TRACK 14 AUDIO
TITLE “Half”
PERFORMER “Soundgarden”
INDEX 01 60:57:52
TRACK 15 AUDIO
TITLE “Like Suicide”
PERFORMER “Soundgarden”
INDEX 01 63:11:62
TRACK 16 AUDIO
TITLE “She Likes Surprises”
PERFORMER “Soundgarden”
INDEX 00 70:13:63
INDEX 01 70:23:34


Leave a Reply

Your email address will not be published. Required fields are marked *

Enter the text from the image below
 

This site uses Akismet to reduce spam. Learn how your comment data is processed.