Soundgarden – Superunknown (Australian Edition)




No Cover available

Artist: Soundgarden
Year: 1994
Genre: Rock
Notes: Discogs
Add. Notes: Australian Edition
Watch Songs on: YouTube
Cover incl.: Yes
Encoder: FLAC
Bitrate: ~900 kBit/s (44.1 kHz/16 Bit/s)
Log & Cue incl.: Yes/Yes
Size: 494,8 MB
Password: “slam” (without ” “)


All Downloads/Hosters are compatible

Download 1
KatFile.com
Turbobit.net
Rapidgator.net
FileFactory.com
Download 2
KatFile.com
Turbobit.net
Rapidgator.net
FileFactory.com

Tracklist:

1 Let Me Drown 3:52
2 My Wave 5:11
3 Fell On Black Days 4:42
4 Mailman 4:25
5 Superunknown 5:06
6 Head Down 6:08
7 Black Hole Sun 5:18
8 Spoonman 4:06
9 Limo Wreck 5:47
10 The Day I Tried To Live 5:19
11 Kickstand 1:34
12 Fresh Tendrils 4:16
13 4th Of July 5:08
14 Half 2:14
15 Like Suicide 7:11

Australien Bonus Track:
16 She Likes Surprises 3:16

EAC-Log, CUE-Sheed & NFO:

Click to open spoiler
EAC extraction logfile from 23. December 2003, 1:53 for CD
Soundgarden / Superunknown (European Edition)

Used drive : LITE-ON LTR-40125S Adapter: 1 ID: 1
Read mode : Secure with NO C2, accurate stream, disable cache
Read offset correction : 12
Overread into Lead-In and Lead-Out : No

Used output format : FLAC 1.1.0 (User Defined Encoder)
128 kBit/s
Additional command line options : -8 -V -T “ARTIST=%a” -T “ALBUM=%g” -T “TRACKNUMBER=%n” -T “TITLE=%t” -T “DATE=%y” -T “GENRE=%m” %s

Other options :
Fill up missing offset samples with silence : Yes
Delete leading and trailing silent blocks : No
Installed external ASPI interface

Track 1
Filename 01 – Let Me Drown.wav

Pre-gap length 0:00:02.33

Peak level 95.3 %
Track quality 100.0 %
Test CRC 3217E2AD
Copy CRC 3217E2AD
Copy OK

Track 2
Filename 02 – My Wave.wav

Pre-gap length 0:00:02.05

Peak level 95.3 %
Track quality 100.0 %
Test CRC 73AB17ED
Copy CRC 73AB17ED
Copy OK

Track 3
Filename 03 – Fell On Black Days.wav

Peak level 95.3 %
Track quality 100.0 %
Test CRC 15C789CD
Copy CRC 15C789CD
Copy OK

Track 4
Filename 04 – Mailman.wav

Pre-gap length 0:00:00.65

Peak level 95.3 %
Track quality 100.0 %
Test CRC 28EC573A
Copy CRC 28EC573A
Copy OK

Track 5
Filename 05 – Superunknown.wav

Peak level 95.3 %
Track quality 100.0 %
Test CRC A774389D
Copy CRC A774389D
Copy OK

Track 6
Filename 06 – Head Down.wav

Peak level 95.3 %
Track quality 100.0 %
Test CRC B0208206
Copy CRC B0208206
Copy OK

Track 7
Filename 07 – Black Hole Sun.wav

Peak level 95.3 %
Track quality 100.0 %
Test CRC DA358384
Copy CRC DA358384
Copy OK

Track 8
Filename 08 – Spoonman.wav

Peak level 95.3 %
Track quality 99.9 %
Test CRC 62535D6E
Copy CRC 62535D6E
Copy OK

Track 9
Filename 09 – Limo Wreck.wav

Peak level 95.3 %
Track quality 100.0 %
Test CRC E346226F
Copy CRC E346226F
Copy OK

Track 10
Filename 10 – The Day I Tried to Live.wav

Peak level 95.3 %
Track quality 100.0 %
Test CRC F7F92F23
Copy CRC F7F92F23
Copy OK

Track 11
Filename 11 – Kickstand.wav

Peak level 95.3 %
Track quality 99.8 %
Test CRC CECE0C44
Copy CRC CECE0C44
Copy OK

Track 12
Filename 12 – Fresh Tendrils.wav

Pre-gap length 0:00:00.40

Peak level 95.3 %
Track quality 100.0 %
Test CRC B99C626A
Copy CRC B99C626A
Copy OK

Track 13
Filename 13 – 4th of July.wav

Pre-gap length 0:00:00.52

Peak level 95.3 %
Track quality 100.0 %
Test CRC CF71991C
Copy CRC CF71991C
Copy OK

Track 14
Filename 14 – Half.wav

Peak level 95.1 %
Track quality 99.9 %
Test CRC 94FF7BB0
Copy CRC 94FF7BB0
Copy OK

Track 15
Filename 15 – Like Suicide.wav

Peak level 95.3 %
Track quality 100.0 %
Test CRC C9CFDF5C
Copy CRC C9CFDF5C
Copy OK

Track 16
Filename 16 – She Likes Surprises.wav

Pre-gap length 0:00:09.55

Peak level 95.3 %
Track quality 100.0 %
Test CRC F4AFA763
Copy CRC F4AFA763
Copy OK

No errors occured

End of status report

PERFORMER “Soundgarden”
TITLE “Superunknown [Europe Release]”
FILE “01 – Let Me Drown.flac” WAVE
TRACK 01 AUDIO
INDEX 01 00:00:00
TRACK 02 AUDIO
INDEX 00 03:50:65
FILE “02 – My Wave.flac” WAVE
INDEX 01 00:00:00
FILE “03 – Fell On Black Days.flac” WAVE
TRACK 03 AUDIO
INDEX 01 00:00:00
TRACK 04 AUDIO
INDEX 00 04:41:60
FILE “04 – Mailman.flac” WAVE
INDEX 01 00:00:00
FILE “05 – Superunknown.flac” WAVE
TRACK 05 AUDIO
INDEX 01 00:00:00
FILE “06 – Head Down.flac” WAVE
TRACK 06 AUDIO
INDEX 01 00:00:00
FILE “07 – Black Hole Sun.flac” WAVE
TRACK 07 AUDIO
INDEX 01 00:00:00
FILE “08 – Spoonman.flac” WAVE
TRACK 08 AUDIO
INDEX 01 00:00:00
FILE “09 – Limo Wreck.flac” WAVE
TRACK 09 AUDIO
INDEX 01 00:00:00
FILE “10 – The Day I Tried to Live.flac” WAVE
TRACK 10 AUDIO
INDEX 01 00:00:00
FILE “11 – Kickstand.flac” WAVE
TRACK 11 AUDIO
INDEX 01 00:00:00
TRACK 12 AUDIO
INDEX 00 01:33:58
FILE “12 – Fresh Tendrils.flac” WAVE
INDEX 01 00:00:00
TRACK 13 AUDIO
INDEX 00 04:15:30
FILE “13 – 4th of July.flac” WAVE
INDEX 01 00:00:00
FILE “14 – Half.flac” WAVE
TRACK 14 AUDIO
INDEX 01 00:00:00
FILE “15 – Like Suicide.flac” WAVE
TRACK 15 AUDIO
INDEX 01 00:00:00
TRACK 16 AUDIO
INDEX 00 07:01:73
FILE “16 – She Likes Surprises.flac” WAVE
INDEX 01 00:00:00


Leave a Reply

Your email address will not be published. Required fields are marked *

Enter the text from the image below
 

This site uses Akismet to reduce spam. Learn how your comment data is processed.