Soundgarden – Screaming Life / Fopp




No Cover available

Artist: Soundgarden
Year: 1990
Genre: Rock
Notes: Discogs
Add. Notes:
Watch Songs on: YouTube
Cover incl.: Yes
Encoder: FLAC
Bitrate: ~900 kBit/s (44.1 kHz/16 Bit/s)
Log & Cue incl.: Yes/Yes
Size: 244,6 MB
Password: “slam” (without ” “)


All Downloads/Hosters are compatible

Download 1
KatFile.com
Turbobit.net
Rapidgator.net
FileFactory.com
Download 2
KatFile.com
Turbobit.net
Rapidgator.net
FileFactory.com

Tracklist:

Screaming Life EP
1 Hunted Down 2:43
2 Entering 4:37
3 Tears To Forget 2:01
4 Nothing To Say 4:00
5 Little Joe 4:31
6 Hand Of God 4:27

Fopp EP
7 Kingdom Of Come 2:36
8 Swallow My Pride 2:18
9 Fopp 3:37
10 Fopp (Dub) 6:25

EAC-Log, CUE-Sheed & NFO:

Click to open spoiler
Exact Audio Copy V0.99 prebeta 3 from 28. July 2007

EAC extraction logfile from 3. January 2008, 19:06

Soundgarden / Screaming Life-Fopp

Used drive : HL-DT-STDVDRAM GSA-H10N Adapter: 1 ID: 0

Read mode : Secure
Utilize accurate stream : Yes
Defeat audio cache : Yes
Make use of C2 pointers : No

Read offset correction : 667
Overread into Lead-In and Lead-Out : No
Fill up missing offset samples with silence : Yes
Delete leading and trailing silent blocks : No
Null samples used in CRC calculations : Yes
Used interface : Installed external ASPI interface
Gap handling : Appended to previous track

Used output format : User Defined Encoder
Selected bitrate : 192 kBit/s
Quality : High
Add ID3 tag : No
Command line compressor : C:\Program Files\FLAC\flac.exe
Additional command line options : -8 -A tukey(0.25) -A gauss(0.1875) -b 4096 -V -T “artist=%a” -T “title=%t” -T “album=%g” -T “date=%y” -T “tracknumber=%n” -T “genre=%m” %s –sector-align

TOC of the extracted CD

Track | Start | Length | Start sector | End sector
———————————————————
1 | 0:00.50 | 2:43.05 | 50 | 12279
2 | 2:43.55 | 4:36.40 | 12280 | 33019
3 | 7:20.20 | 2:00.65 | 33020 | 42084
4 | 9:21.10 | 4:00.12 | 42085 | 60096
5 | 13:21.22 | 4:31.03 | 60097 | 80424
6 | 17:52.25 | 4:27.20 | 80425 | 100469
7 | 22:19.45 | 2:35.50 | 100470 | 112144
8 | 24:55.20 | 2:17.72 | 112145 | 122491
9 | 27:13.17 | 3:37.15 | 122492 | 138781
10 | 30:50.32 | 6:25.30 | 138782 | 167686

Track 1

Filename C:\Shared\Audio.lossless\Soundgarden\1990 Screaming Life-Fopp\01 – Hunted Down.wav

Pre-gap length 0:00:02.66

Peak level 99.7 %
Track quality 100.0 %
Test CRC 59AAA1D7
Copy CRC 59AAA1D7
Accurately ripped (confidence 7) [F98839FA]
Copy OK

Track 2

Filename C:\Shared\Audio.lossless\Soundgarden\1990 Screaming Life-Fopp\02 – Entering.wav

Pre-gap length 0:00:02.04

Peak level 100.0 %
Track quality 100.0 %
Test CRC D1072B80
Copy CRC D1072B80
Accurately ripped (confidence 7) [37370F21]
Copy OK

Track 3

Filename C:\Shared\Audio.lossless\Soundgarden\1990 Screaming Life-Fopp\03 – Tears To Forget.wav

Pre-gap length 0:00:03.53

Peak level 99.8 %
Track quality 99.9 %
Test CRC 26E09026
Copy CRC 26E09026
Accurately ripped (confidence 7) [6742175C]
Copy OK

Track 4

Filename C:\Shared\Audio.lossless\Soundgarden\1990 Screaming Life-Fopp\04 – Nothing To Say.wav

Pre-gap length 0:00:01.77

Peak level 100.0 %
Track quality 100.0 %
Test CRC 0D2F7668
Copy CRC 0D2F7668
Accurately ripped (confidence 7) [19E2E73C]
Copy OK

Track 5

Filename C:\Shared\Audio.lossless\Soundgarden\1990 Screaming Life-Fopp\05 – Little Joe.wav

Pre-gap length 0:00:03.46

Peak level 100.0 %
Track quality 100.0 %
Test CRC 70CCF185
Copy CRC 70CCF185
Accurately ripped (confidence 7) [030D1F87]
Copy OK

Track 6

Filename C:\Shared\Audio.lossless\Soundgarden\1990 Screaming Life-Fopp\06 – Hand Of God.wav

Pre-gap length 0:00:01.33

Peak level 100.0 %
Track quality 100.0 %
Test CRC D35D4068
Copy CRC D35D4068
Accurately ripped (confidence 7) [1357CD74]
Copy OK

Track 7

Filename C:\Shared\Audio.lossless\Soundgarden\1990 Screaming Life-Fopp\07 – Kingdom Of Come.wav

Pre-gap length 0:00:02.60

Peak level 89.8 %
Track quality 100.0 %
Test CRC B88A3648
Copy CRC B88A3648
Accurately ripped (confidence 7) [4305D286]
Copy OK

Track 8

Filename C:\Shared\Audio.lossless\Soundgarden\1990 Screaming Life-Fopp\08 – Swallow My Pride.wav

Pre-gap length 0:00:00.90

Peak level 93.4 %
Track quality 100.0 %
Test CRC BE0825A2
Copy CRC BE0825A2
Accurately ripped (confidence 7) [DF373772]
Copy OK

Track 9

Filename C:\Shared\Audio.lossless\Soundgarden\1990 Screaming Life-Fopp\09 – Fopp.wav

Pre-gap length 0:00:00.96

Peak level 87.9 %
Track quality 100.0 %
Test CRC BD2A1355
Copy CRC BD2A1355
Accurately ripped (confidence 7) [56AD62E4]
Copy OK

Track 10

Filename C:\Shared\Audio.lossless\Soundgarden\1990 Screaming Life-Fopp\10 – Fopp (DUB).wav

Pre-gap length 0:00:01.16

Peak level 100.0 %
Track quality 100.0 %
Test CRC 87EBB603
Copy CRC 87EBB603
Accurately ripped (confidence 7) [3BBA38B3]
Copy OK

All tracks accurately ripped

No errors occurred

End of status report

REM GENRE Rock
REM DATE 1990
REM DISCID 7A08BB0A
REM COMMENT “ExactAudioCopy v0.99pb3”
PERFORMER “Soundgarden”
TITLE “Screaming Life-Fopp”
FILE “01 – Hunted Down.wav” WAVE
TRACK 01 AUDIO
TITLE “Hunted Down”
PERFORMER “Soundgarden”
PREGAP 00:00:50
INDEX 01 00:00:00
TRACK 02 AUDIO
TITLE “Entering”
PERFORMER “Soundgarden”
INDEX 00 02:41:02
FILE “02 – Entering.wav” WAVE
INDEX 01 00:00:00
TRACK 03 AUDIO
TITLE “Tears To Forget”
PERFORMER “Soundgarden”
INDEX 00 04:33:00
FILE “03 – Tears To Forget.wav” WAVE
INDEX 01 00:00:00
TRACK 04 AUDIO
TITLE “Nothing To Say”
PERFORMER “Soundgarden”
INDEX 00 01:59:07
FILE “04 – Nothing To Say.wav” WAVE
INDEX 01 00:00:00
TRACK 05 AUDIO
TITLE “Little Joe”
PERFORMER “Soundgarden”
INDEX 00 03:56:52
FILE “05 – Little Joe.wav” WAVE
INDEX 01 00:00:00
TRACK 06 AUDIO
TITLE “Hand Of God”
PERFORMER “Soundgarden”
INDEX 00 04:29:53
FILE “06 – Hand Of God.wav” WAVE
INDEX 01 00:00:00
TRACK 07 AUDIO
TITLE “Kingdom Of Come”
PERFORMER “Soundgarden”
INDEX 00 04:24:50
FILE “07 – Kingdom Of Come.wav” WAVE
INDEX 01 00:00:00
TRACK 08 AUDIO
TITLE “Swallow My Pride”
PERFORMER “Soundgarden”
INDEX 00 02:34:57
FILE “08 – Swallow My Pride.wav” WAVE
INDEX 01 00:00:00
TRACK 09 AUDIO
TITLE “Fopp”
PERFORMER “Soundgarden”
INDEX 00 02:17:00
FILE “09 – Fopp.wav” WAVE
INDEX 01 00:00:00
TRACK 10 AUDIO
TITLE “Fopp (DUB)”
PERFORMER “Soundgarden”
INDEX 00 03:36:03
FILE “10 – Fopp (DUB).wav” WAVE
INDEX 01 00:00:00


Leave a Reply

Your email address will not be published. Required fields are marked *

Enter the text from the image below
 

This site uses Akismet to reduce spam. Learn how your comment data is processed.