Soundgarden – Louder Than Love




No Cover available

Artist: Soundgarden
Year: 1989
Genre: Metal
Notes: Discogs
Add. Notes:
Watch Songs on: YouTube
Cover incl.: Yes
Encoder: FLAC
Bitrate: ~900 kBit/s (44.1 kHz/16 Bit/s)
Log & Cue incl.: Yes/Yes
Size: 340,3 MB
Password: “slam” (without ” “)


All Downloads/Hosters are compatible

Download 1
KatFile.com
Turbobit.net
Rapidgator.net
FileFactory.com
Download 2
KatFile.com
Turbobit.net
Rapidgator.net
FileFactory.com

Tracklist:

1 Ugly Truth 5:26
2 Hands All Over 6:00
3 Gun 4:42
4 Power Trip 4:09
5 Get On The Snake 3:44
6 Full On Kevin's Mom 3:37
7 Loud Love 4:57
8 I Awake 4:21
9 No Wrong No Right 4:47
10 Uncovered 4:30
11 Big Dumb Sex 4:11
12 Full On (Reprise) 2:42

EAC-Log, CUE-Sheed & NFO:

Click to open spoiler
Exact Audio Copy V0.99 prebeta 3 from 28. July 2007

EAC extraction logfile from 3. January 2008, 20:21

Soundgarden / Louder Than Love

Used drive : HL-DT-STDVDRAM GSA-H10N Adapter: 1 ID: 0

Read mode : Secure
Utilize accurate stream : Yes
Defeat audio cache : Yes
Make use of C2 pointers : No

Read offset correction : 667
Overread into Lead-In and Lead-Out : No
Fill up missing offset samples with silence : Yes
Delete leading and trailing silent blocks : No
Null samples used in CRC calculations : Yes
Used interface : Installed external ASPI interface
Gap handling : Appended to previous track

Used output format : User Defined Encoder
Selected bitrate : 192 kBit/s
Quality : High
Add ID3 tag : No
Command line compressor : C:\Program Files\FLAC\flac.exe
Additional command line options : -8 -A tukey(0.25) -A gauss(0.1875) -b 4096 -V -T “artist=%a” -T “title=%t” -T “album=%g” -T “date=%y” -T “tracknumber=%n” -T “genre=%m” %s –sector-align

TOC of the extracted CD

Track | Start | Length | Start sector | End sector
———————————————————
1 | 0:00.00 | 5:26.35 | 0 | 24484
2 | 5:26.35 | 6:00.27 | 24485 | 51511
3 | 11:26.62 | 4:42.40 | 51512 | 72701
4 | 16:09.27 | 4:11.58 | 72702 | 91584
5 | 20:21.10 | 3:43.62 | 91585 | 108371
6 | 24:04.72 | 3:37.40 | 108372 | 124686
7 | 27:42.37 | 4:57.18 | 124687 | 146979
8 | 32:39.55 | 4:21.05 | 146980 | 166559
9 | 37:00.60 | 4:48.52 | 166560 | 188211
10 | 41:49.37 | 4:32.18 | 188212 | 208629
11 | 46:21.55 | 4:11.10 | 208630 | 227464
12 | 50:32.65 | 2:42.10 | 227465 | 239624

Track 1

Filename C:\Shared\Audio.lossless\Soundgarden\1989 Louder Than Love\01 – Ugly Truth.wav

Pre-gap length 0:00:02.00

Peak level 87.2 %
Track quality 100.0 %
Test CRC 0D0E6B42
Copy CRC 0D0E6B42
Accurately ripped (confidence 2) [572CDBD4]
Copy OK

Track 2

Filename C:\Shared\Audio.lossless\Soundgarden\1989 Louder Than Love\02 – Hands All Over.wav

Peak level 100.0 %
Track quality 100.0 %
Test CRC F4628C57
Copy CRC F4628C57
Accurately ripped (confidence 2) [481A30C4]
Copy OK

Track 3

Filename C:\Shared\Audio.lossless\Soundgarden\1989 Louder Than Love\03 – Gun.wav

Peak level 93.9 %
Track quality 100.0 %
Test CRC 21C06DCE
Copy CRC 21C06DCE
Accurately ripped (confidence 2) [F91470AF]
Copy OK

Track 4

Filename C:\Shared\Audio.lossless\Soundgarden\1989 Louder Than Love\04 – Power Trip.wav

Pre-gap length 0:00:00.20

Peak level 99.4 %
Track quality 100.0 %
Test CRC F8D6691B
Copy CRC F8D6691B
Accurately ripped (confidence 2) [5CBFA090]
Copy OK

Track 5

Filename C:\Shared\Audio.lossless\Soundgarden\1989 Louder Than Love\05 – Get On The Snake.wav

Pre-gap length 0:00:02.60

Peak level 100.0 %
Track quality 100.0 %
Test CRC B1A2ED08
Copy CRC B1A2ED08
Accurately ripped (confidence 2) [F65CFCE5]
Copy OK

Track 6

Filename C:\Shared\Audio.lossless\Soundgarden\1989 Louder Than Love\06 – Full On Kevin’s Mom.wav

Peak level 100.0 %
Track quality 100.0 %
Test CRC A0EFA1E9
Copy CRC A0EFA1E9
Accurately ripped (confidence 2) [314F05CB]
Copy OK

Track 7

Filename C:\Shared\Audio.lossless\Soundgarden\1989 Louder Than Love\07 – Loud Love.wav

Pre-gap length 0:00:00.42

Peak level 100.0 %
Track quality 100.0 %
Test CRC 6A7D462B
Copy CRC 6A7D462B
Accurately ripped (confidence 2) [15C4443A]
Copy OK

Track 8

Filename C:\Shared\Audio.lossless\Soundgarden\1989 Louder Than Love\08 – I Awake.wav

Pre-gap length 0:00:00.17

Peak level 100.0 %
Track quality 100.0 %
Test CRC 6F316081
Copy CRC 6F316081
Accurately ripped (confidence 2) [C23AAA74]
Copy OK

Track 9

Filename C:\Shared\Audio.lossless\Soundgarden\1989 Louder Than Love\09 – No Wrong No Right.wav

Peak level 94.4 %
Track quality 100.0 %
Test CRC 26EB5CA1
Copy CRC 26EB5CA1
Accurately ripped (confidence 2) [CFC69E74]
Copy OK

Track 10

Filename C:\Shared\Audio.lossless\Soundgarden\1989 Louder Than Love\10 – Uncovered.wav

Pre-gap length 0:00:01.00

Peak level 99.0 %
Track quality 100.0 %
Test CRC D7DF66B3
Copy CRC D7DF66B3
Accurately ripped (confidence 2) [35CE55BF]
Copy OK

Track 11

Filename C:\Shared\Audio.lossless\Soundgarden\1989 Louder Than Love\11 – Big Dumb Sex.wav

Pre-gap length 0:00:01.73

Peak level 94.9 %
Track quality 100.0 %
Test CRC 0B4F98D0
Copy CRC 0B4F98D0
Accurately ripped (confidence 2) [A22DDDC6]
Copy OK

Track 12

Filename C:\Shared\Audio.lossless\Soundgarden\1989 Louder Than Love\12 – Full On (Reprise).wav

Pre-gap length 0:00:00.04

Peak level 89.9 %
Track quality 100.0 %
Test CRC 407A0ECD
Copy CRC 407A0ECD
Accurately ripped (confidence 2) [4D3729B4]
Copy OK

All tracks accurately ripped

No errors occurred

End of status report

REM GENRE Rock
REM DATE 1989
REM DISCID 9E0C7B0C
REM COMMENT “ExactAudioCopy v0.99pb3”
PERFORMER “Soundgarden”
TITLE “Louder Than Love”
FILE “Soundgarden\1989 Louder Than Love\01 – Ugly Truth.wav” WAVE
TRACK 01 AUDIO
TITLE “Ugly Truth”
PERFORMER “Soundgarden”
FLAGS DCP
INDEX 01 00:00:00
FILE “Soundgarden\1989 Louder Than Love\02 – Hands All Over.wav” WAVE
TRACK 02 AUDIO
TITLE “Hands All Over”
PERFORMER “Soundgarden”
FLAGS DCP
INDEX 01 00:00:00
FILE “Soundgarden\1989 Louder Than Love\03 – Gun.wav” WAVE
TRACK 03 AUDIO
TITLE “Gun”
PERFORMER “Soundgarden”
FLAGS DCP
INDEX 01 00:00:00
TRACK 04 AUDIO
TITLE “Power Trip”
PERFORMER “Soundgarden”
FLAGS DCP
INDEX 00 04:42:25
FILE “Soundgarden\1989 Louder Than Love\04 – Power Trip.wav” WAVE
INDEX 01 00:00:00
TRACK 05 AUDIO
TITLE “Get On The Snake”
PERFORMER “Soundgarden”
FLAGS DCP
INDEX 00 04:09:13
FILE “Soundgarden\1989 Louder Than Love\05 – Get On The Snake.wav” WAVE
INDEX 01 00:00:00
FILE “Soundgarden\1989 Louder Than Love\06 – Full On Kevin’s Mom.wav” WAVE
TRACK 06 AUDIO
TITLE “Full On Kevin’s Mom”
PERFORMER “Soundgarden”
FLAGS DCP
INDEX 01 00:00:00
TRACK 07 AUDIO
TITLE “Loud Love”
PERFORMER “Soundgarden”
FLAGS DCP
INDEX 00 03:37:08
FILE “Soundgarden\1989 Louder Than Love\07 – Loud Love.wav” WAVE
INDEX 01 00:00:00
TRACK 08 AUDIO
TITLE “I Awake”
PERFORMER “Soundgarden”
FLAGS DCP
INDEX 00 04:57:05
FILE “Soundgarden\1989 Louder Than Love\08 – I Awake.wav” WAVE
INDEX 01 00:00:00
FILE “Soundgarden\1989 Louder Than Love\09 – No Wrong No Right.wav” WAVE
TRACK 09 AUDIO
TITLE “No Wrong No Right”
PERFORMER “Soundgarden”
FLAGS DCP
INDEX 01 00:00:00
TRACK 10 AUDIO
TITLE “Uncovered”
PERFORMER “Soundgarden”
FLAGS DCP
INDEX 00 04:47:52
FILE “Soundgarden\1989 Louder Than Love\10 – Uncovered.wav” WAVE
INDEX 01 00:00:00
TRACK 11 AUDIO
TITLE “Big Dumb Sex”
PERFORMER “Soundgarden”
FLAGS DCP
INDEX 00 04:30:38
FILE “Soundgarden\1989 Louder Than Love\11 – Big Dumb Sex.wav” WAVE
INDEX 01 00:00:00
TRACK 12 AUDIO
TITLE “Full On (Reprise)”
PERFORMER “Soundgarden”
FLAGS DCP
INDEX 00 04:11:07
FILE “Soundgarden\1989 Louder Than Love\12 – Full On (Reprise).wav” WAVE
INDEX 01 00:00:00


0

Publication author

offline 14 hours

Chaos

3
Comments: 4Publics: 3418Registration: 02-02-2019
Spread the Download

Leave a Reply

Your email address will not be published. Required fields are marked *

Enter the text from the image below
 

This site uses Akismet to reduce spam. Learn how your comment data is processed.