Soundgarden – A-Sides




No Cover available

Artist: Soundgarden
Year: 1997
Genre: Metal
Notes: Discogs
Add. Notes:
Watch Songs on: YouTube
Cover incl.: Yes
Encoder: FLAC
Bitrate: ~900 kBit/s (44.1 kHz/16 Bit/s)
Log & Cue incl.: Yes/Yes
Size: 519,1 MB
Password: “slam” (without ” “)


All Downloads/Hosters are compatible

Download 1
KatFile.com
Turbobit.net
Rapidgator.net
FileFactory.com
Download 2
KatFile.com
Turbobit.net
Rapidgator.net
FileFactory.com

Tracklist:

1 Nothing To Say 3:56
2 Flower 3:25
3 Loud Love 4:57
4 Hands All Over 6:00
5 Get On The Snake 3:44
6 Jesus Christ Pose 5:51
7 Outshined 5:11
8 Rusty Cage 4:26
9 Spoonman 4:06
10 The Day I Tried To Live 5:19
11 Black Hole Sun 5:18
12 Fell On Black Days 4:42
13 Pretty Noose 4:12
14 Burden In My Hand 4:50
15 Blow Up The Outside World 5:46
16 Ty Cobb 3:05
17 Bleed Together 3:54

EAC-Log, CUE-Sheed & NFO:

Click to open spoiler
EAC extraction logfile from 28. May 2007, 17:40 for CD
Soundgarden / A-Sides

Used drive : PIONEER DVD-RW DVR-108 Adapter: 0 ID: 0
Read mode : Secure with NO C2, accurate stream, disable cache
Read offset correction : 48
Overread into Lead-In and Lead-Out : No

Used output format : C:\Program Files\Exact Audio Copy\flac.exe (User Defined Encoder)
320 kBit/s
Additional command line options : -8 -A tukey(0.25) -A gauss(0.1875) -b 4096 -V -T “artist=%a” -T “title=%t” -T “album=%g” -T “date=%y” -T “tracknumber=%n” -T “genre=%m” %s –sector-align

Other options :
Fill up missing offset samples with silence : Yes
Delete leading and trailing silent blocks : No
Installed external ASPI interface

Track 1
Filename C:\Documents and Settings\bestia\My Documents\Ripped Music\320MP3\Soundgarden – A-Sides\01 – Soundgarden – Nothing To Say.wav

Pre-gap length 0:00:02.00

Peak level 99.8 %
Track quality 100.0 %
Test CRC F484008F
Copy CRC F484008F
Copy OK

Track 2
Filename C:\Documents and Settings\bestia\My Documents\Ripped Music\320MP3\Soundgarden – A-Sides\02 – Soundgarden – Flower.wav

Pre-gap length 0:00:01.73

Peak level 99.8 %
Track quality 100.0 %
Test CRC 71D570FA
Copy CRC 71D570FA
Copy OK

Track 3
Filename C:\Documents and Settings\bestia\My Documents\Ripped Music\320MP3\Soundgarden – A-Sides\03 – Soundgarden – Loud Love.wav

Pre-gap length 0:00:01.73

Peak level 99.8 %
Track quality 100.0 %
Test CRC DA851173
Copy CRC DA851173
Copy OK

Track 4
Filename C:\Documents and Settings\bestia\My Documents\Ripped Music\320MP3\Soundgarden – A-Sides\04 – Soundgarden – Hands All Over.wav

Pre-gap length 0:00:01.69

Peak level 99.8 %
Track quality 100.0 %
Test CRC 39203C91
Copy CRC 39203C91
Copy OK

Track 5
Filename C:\Documents and Settings\bestia\My Documents\Ripped Music\320MP3\Soundgarden – A-Sides\05 – Soundgarden – Get On The Snake.wav

Pre-gap length 0:00:01.64

Peak level 99.8 %
Track quality 100.0 %
Test CRC A85F8C4F
Copy CRC A85F8C4F
Copy OK

Track 6
Filename C:\Documents and Settings\bestia\My Documents\Ripped Music\320MP3\Soundgarden – A-Sides\06 – Soundgarden – Jesus Christ Pose.wav

Pre-gap length 0:00:01.80

Peak level 99.8 %
Track quality 100.0 %
Test CRC B21D9AE0
Copy CRC B21D9AE0
Copy OK

Track 7
Filename C:\Documents and Settings\bestia\My Documents\Ripped Music\320MP3\Soundgarden – A-Sides\07 – Soundgarden – Outshined.wav

Pre-gap length 0:00:01.66

Peak level 99.8 %
Track quality 100.0 %
Test CRC FCCBFBB8
Copy CRC FCCBFBB8
Copy OK

Track 8
Filename C:\Documents and Settings\bestia\My Documents\Ripped Music\320MP3\Soundgarden – A-Sides\08 – Soundgarden – Rusty Cage.wav

Pre-gap length 0:00:01.73

Peak level 99.8 %
Track quality 99.9 %
Test CRC 03283EA4
Copy CRC 03283EA4
Copy OK

Track 9
Filename C:\Documents and Settings\bestia\My Documents\Ripped Music\320MP3\Soundgarden – A-Sides\09 – Soundgarden – Spoonman.wav

Pre-gap length 0:00:01.77

Peak level 99.3 %
Track quality 100.0 %
Test CRC 9ED7657B
Copy CRC 9ED7657B
Copy OK

Track 10
Filename C:\Documents and Settings\bestia\My Documents\Ripped Music\320MP3\Soundgarden – A-Sides\10 – Soundgarden – The Day I Tried To Live.wav

Pre-gap length 0:00:01.53

Peak level 97.0 %
Track quality 100.0 %
Test CRC F02405E7
Copy CRC F02405E7
Copy OK

Track 11
Filename C:\Documents and Settings\bestia\My Documents\Ripped Music\320MP3\Soundgarden – A-Sides\11 – Soundgarden – Black Hole Sun.wav

Pre-gap length 0:00:01.69

Peak level 96.5 %
Track quality 100.0 %
Test CRC 734F9E23
Copy CRC 734F9E23
Copy OK

Track 12
Filename C:\Documents and Settings\bestia\My Documents\Ripped Music\320MP3\Soundgarden – A-Sides\12 – Soundgarden – Fell On Black Days.wav

Pre-gap length 0:00:01.69

Peak level 96.0 %
Track quality 100.0 %
Test CRC 9255791F
Copy CRC 9255791F
Copy OK

Track 13
Filename C:\Documents and Settings\bestia\My Documents\Ripped Music\320MP3\Soundgarden – A-Sides\13 – Soundgarden – Pretty Noose.wav

Pre-gap length 0:00:01.86

Peak level 99.8 %
Track quality 100.0 %
Test CRC 12AD0F5C
Copy CRC 12AD0F5C
Copy OK

Track 14
Filename C:\Documents and Settings\bestia\My Documents\Ripped Music\320MP3\Soundgarden – A-Sides\14 – Soundgarden – Burden In My Hand.wav

Pre-gap length 0:00:01.46

Peak level 99.8 %
Track quality 100.0 %
Test CRC FF307966
Copy CRC FF307966
Copy OK

Track 15
Filename C:\Documents and Settings\bestia\My Documents\Ripped Music\320MP3\Soundgarden – A-Sides\15 – Soundgarden – Blow Up The Outside World.wav

Pre-gap length 0:00:01.66

Peak level 99.8 %
Track quality 100.0 %
Test CRC BC75C0C3
Copy CRC BC75C0C3
Copy OK

Track 16
Filename C:\Documents and Settings\bestia\My Documents\Ripped Music\320MP3\Soundgarden – A-Sides\16 – Soundgarden – Ty Cobb.wav

Pre-gap length 0:00:01.66

Peak level 99.8 %
Track quality 100.0 %
Test CRC 8367410B
Copy CRC 8367410B
Copy OK

Track 17
Filename C:\Documents and Settings\bestia\My Documents\Ripped Music\320MP3\Soundgarden – A-Sides\17 – Soundgarden – Bleed Together.wav

Pre-gap length 0:00:01.64

Peak level 99.8 %
Track quality 100.0 %
Test CRC 9A01DDEC
Copy CRC 9A01DDEC
Copy OK

No errors occured

End of status report

REM GENRE Rock
REM DATE 1997
REM DISCID FD128E11
REM COMMENT “ExactAudioCopy v0.95b4”
PERFORMER “Soundgarden”
TITLE “A-Sides”
FILE “01 – Soundgarden – Nothing To Say.wav” WAVE
TRACK 01 AUDIO
TITLE “Nothing To Say”
PERFORMER “Soundgarden”
INDEX 01 00:00:00
TRACK 02 AUDIO
TITLE “Flower”
PERFORMER “Soundgarden”
INDEX 00 03:56:27
FILE “02 – Soundgarden – Flower.wav” WAVE
INDEX 01 00:00:00
TRACK 03 AUDIO
TITLE “Loud Love”
PERFORMER “Soundgarden”
INDEX 00 03:27:03
FILE “03 – Soundgarden – Loud Love.wav” WAVE
INDEX 01 00:00:00
TRACK 04 AUDIO
TITLE “Hands All Over”
PERFORMER “Soundgarden”
INDEX 00 04:55:45
FILE “04 – Soundgarden – Hands All Over.wav” WAVE
INDEX 01 00:00:00
TRACK 05 AUDIO
TITLE “Get On The Snake”
PERFORMER “Soundgarden”
INDEX 00 06:00:55
FILE “05 – Soundgarden – Get On The Snake.wav” WAVE
INDEX 01 00:00:00
TRACK 06 AUDIO
TITLE “Jesus Christ Pose”
PERFORMER “Soundgarden”
INDEX 00 03:43:17
FILE “06 – Soundgarden – Jesus Christ Pose.wav” WAVE
INDEX 01 00:00:00
TRACK 07 AUDIO
TITLE “Outshined”
PERFORMER “Soundgarden”
INDEX 00 05:51:15
FILE “07 – Soundgarden – Outshined.wav” WAVE
INDEX 01 00:00:00
TRACK 08 AUDIO
TITLE “Rusty Cage”
PERFORMER “Soundgarden”
INDEX 00 05:10:50
FILE “08 – Soundgarden – Rusty Cage.wav” WAVE
INDEX 01 00:00:00
TRACK 09 AUDIO
TITLE “Spoonman”
PERFORMER “Soundgarden”
INDEX 00 04:25:65
FILE “09 – Soundgarden – Spoonman.wav” WAVE
INDEX 01 00:00:00
TRACK 10 AUDIO
TITLE “The Day I Tried To Live”
PERFORMER “Soundgarden”
INDEX 00 04:06:65
FILE “10 – Soundgarden – The Day I Tried To Live.wav” WAVE
INDEX 01 00:00:00
TRACK 11 AUDIO
TITLE “Black Hole Sun”
PERFORMER “Soundgarden”
INDEX 00 05:19:35
FILE “11 – Soundgarden – Black Hole Sun.wav” WAVE
INDEX 01 00:00:00
TRACK 12 AUDIO
TITLE “Fell On Black Days”
PERFORMER “Soundgarden”
INDEX 00 05:18:28
FILE “12 – Soundgarden – Fell On Black Days.wav” WAVE
INDEX 01 00:00:00
TRACK 13 AUDIO
TITLE “Pretty Noose”
PERFORMER “Soundgarden”
INDEX 00 04:40:35
FILE “13 – Soundgarden – Pretty Noose.wav” WAVE
INDEX 01 00:00:00
TRACK 14 AUDIO
TITLE “Burden In My Hand”
PERFORMER “Soundgarden”
INDEX 00 04:12:00
FILE “14 – Soundgarden – Burden In My Hand.wav” WAVE
INDEX 01 00:00:00
TRACK 15 AUDIO
TITLE “Blow Up The Outside World”
PERFORMER “Soundgarden”
INDEX 00 04:50:30
FILE “15 – Soundgarden – Blow Up The Outside World.wav” WAVE
INDEX 01 00:00:00
TRACK 16 AUDIO
TITLE “Ty Cobb”
PERFORMER “Soundgarden”
INDEX 00 05:46:13
FILE “16 – Soundgarden – Ty Cobb.wav” WAVE
INDEX 01 00:00:00
TRACK 17 AUDIO
TITLE “Bleed Together”
PERFORMER “Soundgarden”
INDEX 00 03:07:02
FILE “17 – Soundgarden – Bleed Together.wav” WAVE
INDEX 01 00:00:00


0

Publication author

offline 8 hours

Chaos

3
Comments: 4Publics: 3360Registration: 02-02-2019
Spread the Download

Leave a Reply

Your email address will not be published. Required fields are marked *

Enter the text from the image below
 

This site uses Akismet to reduce spam. Learn how your comment data is processed.