Soundgarden – A-Sides (Japanese Edition)




No Cover available

Artist: Soundgarden
Year: 1997/2008
Genre: Punk
Notes: Discogs
Add. Notes: Japanese Edition
Watch Songs on: YouTube
Cover incl.: Yes
Encoder: APE
Bitrate: ~900 kBit/s (44.1 kHz/16 Bit/s)
Log & Cue incl.: Yes/Yes
Size: 511,5 MB
Password: “slam” (without ” “)


All Downloads/Hosters are compatible

Download 1
KatFile.com
Turbobit.net
Rapidgator.net
FileFactory.com
Download 2
KatFile.com
Turbobit.net
Rapidgator.net
FileFactory.com

Tracklist:

1 Nothing To Say 3:56
2 Flower 3:25
3 Loud Love 4:57
4 Hands All Over 6:00
5 Get On The Snake 3:44
6 Jesus Christ Pose 5:51
7 Outshined 5:11
8 Rusty Cage 4:26
9 Spoonman 4:06
10 The Day I Tried To Live 5:19
11 Black Hole Sun 5:18
12 Fell On Black Days 4:42
13 Pretty Noose 4:12
14 Burden In My Hand 4:50
15 Blow Up The Outside World 5:46
16 Ty Cobb 3:05
17 Bleed Together 3:54

EAC-Log, CUE-Sheed & NFO:

Click to open spoiler
Exact Audio Copy V0.99 prebeta 5 from 4. May 2009

EAC extraction logfile from 3. October 2009, 2:42

Soundgarden / A-Sides [Compilation]

Used drive : SAMSUNG CD-ROM SC-148A Adapter: 1 ID: 1

Read mode : Secure
Utilize accurate stream : Yes
Defeat audio cache : Yes
Make use of C2 pointers : No

Read offset correction : 12
Overread into Lead-In and Lead-Out : Yes
Fill up missing offset samples with silence : Yes
Delete leading and trailing silent blocks : No
Null samples used in CRC calculations : Yes
Used interface : Native Win32 interface for Win NT & 2000

Used output format : Internal WAV Routines
Sample format : 44.100 Hz; 16 Bit; Stereo

TOC of the extracted CD

Track | Start | Length | Start sector | End sector
———————————————————
1 | 0:00.00 | 3:58.08 | 0 | 17857
2 | 3:58.08 | 3:28.57 | 17858 | 33514
3 | 7:26.65 | 4:57.23 | 33515 | 55812
4 | 12:24.13 | 6:02.27 | 55813 | 82989
5 | 18:26.40 | 3:45.03 | 82990 | 99867
6 | 22:11.43 | 5:52.65 | 99868 | 126332
7 | 28:04.33 | 5:12.30 | 126333 | 149762
8 | 33:16.63 | 4:27.47 | 149763 | 169834
9 | 37:44.35 | 4:08.30 | 169835 | 188464
10 | 41:52.65 | 5:21.13 | 188465 | 212552
11 | 47:14.03 | 5:20.05 | 212553 | 236557
12 | 52:34.08 | 4:42.25 | 236558 | 257732
13 | 57:16.33 | 4:13.35 | 257733 | 276742
14 | 61:29.68 | 4:52.05 | 276743 | 298647
15 | 66:21.73 | 5:47.62 | 298648 | 324734
16 | 72:09.60 | 3:08.50 | 324735 | 338884
17 | 75:18.35 | 3:51.55 | 338885 | 356264

Range status and errors

Selected range

Filename C:\Soundgarden – 1997 – A-Sides [Compilation]\Soundgarden – 1997 – A-Sides [Compilation].wav

Peak level 99.8 %
Range quality 100.0 %
Test CRC 0DEE2086
Copy CRC 0DEE2086
Copy OK

No errors occurred

AccurateRip summary

Track 1 accurately ripped (confidence 1) [63A1BDC8]
Track 2 accurately ripped (confidence 1) [ABB13332]
Track 3 accurately ripped (confidence 1) [BFEE2CB8]
Track 4 accurately ripped (confidence 1) [496B3D4E]
Track 5 accurately ripped (confidence 1) [981EE542]
Track 6 accurately ripped (confidence 1) [64A417D9]
Track 7 accurately ripped (confidence 1) [88A0E138]
Track 8 accurately ripped (confidence 1) [3E2321F6]
Track 9 accurately ripped (confidence 1) [96E6061F]
Track 10 accurately ripped (confidence 1) [7811F727]
Track 11 accurately ripped (confidence 1) [8DC10B2A]
Track 12 accurately ripped (confidence 1) [BEAD7424]
Track 13 accurately ripped (confidence 1) [B8C834F3]
Track 14 accurately ripped (confidence 1) [971BE4FC]
Track 15 accurately ripped (confidence 1) [AA59E0E0]
Track 16 accurately ripped (confidence 1) [2B5F3761]
Track 17 accurately ripped (confidence 1) [7B87FA7A]

All tracks accurately ripped

End of status report

REM GENRE Grunge
REM DATE 1997
REM DISCID FD128E11
REM COMMENT 2008 JP SHM-CD / Universal [UICY-90874] / UPC 4988005514868
CATALOG 4988005207234
PERFORMER “Soundgarden”
TITLE “A-Sides [Compilation]”
FILE “Soundgarden – 1997 – A-Sides [Compilation].ape” WAVE
TRACK 01 AUDIO
TITLE “Nothing To Say”
PERFORMER “Soundgarden”
INDEX 01 00:00:00
TRACK 02 AUDIO
TITLE “Flower”
PERFORMER “Soundgarden”
INDEX 00 03:56:28
INDEX 01 03:58:08
TRACK 03 AUDIO
TITLE “Loud Love”
PERFORMER “Soundgarden”
ISRC USAM18974573
INDEX 00 07:25:10
INDEX 01 07:26:65
TRACK 04 AUDIO
TITLE “Hands All Over”
PERFORMER “Soundgarden”
ISRC USAM18900502
INDEX 00 12:22:35
INDEX 01 12:24:13
TRACK 05 AUDIO
TITLE “Get On The Snake”
PERFORMER “Soundgarden”
ISRC USAM18974575
INDEX 00 18:24:68
INDEX 01 18:26:40
TRACK 06 AUDIO
TITLE “Jesus Christ Pose”
PERFORMER “Soundgarden”
ISRC USAM19100282
INDEX 00 22:09:58
INDEX 01 22:11:43
TRACK 07 AUDIO
TITLE “Outshined”
PERFORMER “Soundgarden”
ISRC USAM19104304
INDEX 00 28:02:58
INDEX 01 28:04:33
TRACK 08 AUDIO
TITLE “Rusty Cage”
PERFORMER “Soundgarden”
ISRC USAM19104305
INDEX 00 33:15:08
INDEX 01 33:16:63
TRACK 09 AUDIO
TITLE “Spoonman”
PERFORMER “Soundgarden”
ISRC USAM19400008
INDEX 00 37:42:53
INDEX 01 37:44:35
TRACK 10 AUDIO
TITLE “The Day I Tried To Live”
PERFORMER “Soundgarden”
ISRC USAM19400010
INDEX 00 41:51:25
INDEX 01 41:52:65
TRACK 11 AUDIO
TITLE “Black Hole Sun”
PERFORMER “Soundgarden”
ISRC USAM19400007
INDEX 00 47:12:25
INDEX 01 47:14:03
TRACK 12 AUDIO
TITLE “Fell On Black Days”
PERFORMER “Soundgarden”
ISRC USAM19400003
INDEX 00 52:32:30
INDEX 01 52:34:08
TRACK 13 AUDIO
TITLE “Pretty Noose”
PERFORMER “Soundgarden”
ISRC USAM19602226
INDEX 00 57:14:43
INDEX 01 57:16:33
TRACK 14 AUDIO
TITLE “Burden In My Hand”
PERFORMER “Soundgarden”
ISRC USAM19602232
INDEX 00 61:28:33
INDEX 01 61:29:68
TRACK 15 AUDIO
TITLE “Blow Up The Outside World”
PERFORMER “Soundgarden”
ISRC USAM19602231
INDEX 00 66:20:23
INDEX 01 66:21:73
TRACK 16 AUDIO
TITLE “Ty Cobb”
PERFORMER “Soundgarden”
ISRC USAM19602230
INDEX 00 72:08:10
INDEX 01 72:09:60
TRACK 17 AUDIO
TITLE “Bleed Together”
PERFORMER “Soundgarden”
ISRC USAM19604253
INDEX 00 75:16:63
INDEX 01 75:18:35


Leave a Reply

Your email address will not be published. Required fields are marked *

Enter the text from the image below
 

This site uses Akismet to reduce spam. Learn how your comment data is processed.