Social Distortion – White Light, White Heat, White Trash




Artist: Social Distortion
Year: 1996
Genre: Punk
Notes: Discogs
Add. Notes:
Cover incl.: No
Encoder: FLAC
Bitrate: ~1100 kBit/s (44.1 kHz/16 Bit/s)
Log & Cue incl.: Yes
Size: 349 MB
Password: “slam” (without ” “)


All Downloads/Hosters are compatible

Download 1
KatFile.com
Turbobit.net
Rapidgator.net
Usersdrive.com
Download 2
KatFile.com
Turbobit.net
Rapidgator.net
Usersdrive.com

Tracklist:

1 - Dear Lover - 4:44
2 - Don't Drag Me Down - 3:51
3 - Untitled - 4:46
4 - I Was Wrong - 3:59
5 - Through These Eyes - 3:16
6 - Down On The World Again - 3:22
7 - When The Angels Sing - 4:15
8 - Gotta Know The Rules - 3:28
9 - Crown Of Thorns - 4:16
10 - Pleasure Seeker - 3:33
11 - Down Here (W/ The Rest Of Us) - 4:20
12 - Under My Thumb - 2:50

EAC-Log, CUE-Sheed & NFO:

Click to open spoiler
EAC extraction logfile from 2. March 2007, 13:03 for CD
Social Distortion / White Light White Heat White Trash

Used drive : BENQ DVD DD DW1640 Adapter: 0 ID: 0
Read mode : Secure with NO C2, accurate stream, disable cache
Read offset correction : 618
Overread into Lead-In and Lead-Out : No

Used output format : C:\Program Files\FLAC\flac.exe (User Defined Encoder)
128 kBit/s
Additional command line options : -V -8 -T “artist=%a” -T “title=%t” -T “album=%g” -T “date=%y” -T “tracknumber=%n” -T “genre=%m” %s

Other options :
Fill up missing offset samples with silence : Yes
Delete leading and trailing silent blocks : No
Native Win32 interface for Win NT & 2000

Track 1
Filename C:\Documents and Settings\Glyn\Desktop\Social Distortion – White Light, White Heat, White Trash\01 – Dear Lover.wav

Pre-gap length 0:00:02.00

Peak level 100.0 %
Track quality 99.9 %
Test CRC 69DB2543
Copy CRC 69DB2543
Copy OK

Track 2
Filename C:\Documents and Settings\Glyn\Desktop\Social Distortion – White Light, White Heat, White Trash\02 – Don’t Drag Me Down.wav

Peak level 100.0 %
Track quality 100.0 %
Test CRC 4D29E55F
Copy CRC 4D29E55F
Copy OK

Track 3
Filename C:\Documents and Settings\Glyn\Desktop\Social Distortion – White Light, White Heat, White Trash\03 – Untitled.wav

Pre-gap length 0:00:00.70

Peak level 100.0 %
Track quality 100.0 %
Test CRC B7CB5E06
Copy CRC B7CB5E06
Copy OK

Track 4
Filename C:\Documents and Settings\Glyn\Desktop\Social Distortion – White Light, White Heat, White Trash\04 – I Was Wrong.wav

Pre-gap length 0:00:00.86

Peak level 100.0 %
Track quality 100.0 %
Test CRC 0DD74938
Copy CRC 0DD74938
Copy OK

Track 5
Filename C:\Documents and Settings\Glyn\Desktop\Social Distortion – White Light, White Heat, White Trash\05 – Through These Eyes.wav

Pre-gap length 0:00:01.06

Peak level 100.0 %
Track quality 100.0 %
Test CRC FBEC1C2A
Copy CRC FBEC1C2A
Copy OK

Track 6
Filename C:\Documents and Settings\Glyn\Desktop\Social Distortion – White Light, White Heat, White Trash\06 – Down On The World Again.wav

Pre-gap length 0:00:01.24

Peak level 100.0 %
Track quality 100.0 %
Test CRC 485DE06A
Copy CRC 485DE06A
Copy OK

Track 7
Filename C:\Documents and Settings\Glyn\Desktop\Social Distortion – White Light, White Heat, White Trash\07 – When The Angels Sing.wav

Pre-gap length 0:00:01.29

Peak level 100.0 %
Track quality 100.0 %
Test CRC 1F0391F1
Copy CRC 1F0391F1
Copy OK

Track 8
Filename C:\Documents and Settings\Glyn\Desktop\Social Distortion – White Light, White Heat, White Trash\08 – Gotta Know The Rules.wav

Pre-gap length 0:00:00.76

Peak level 100.0 %
Track quality 99.9 %
Test CRC A640EF35
Copy CRC A640EF35
Copy OK

Track 9
Filename C:\Documents and Settings\Glyn\Desktop\Social Distortion – White Light, White Heat, White Trash\09 – Crown Of Thorns.wav

Pre-gap length 0:00:00.46

Peak level 100.0 %
Track quality 99.9 %
Test CRC 567C1658
Copy CRC 567C1658
Copy OK

Track 10
Filename C:\Documents and Settings\Glyn\Desktop\Social Distortion – White Light, White Heat, White Trash\10 – Pleasure Seeker.wav

Pre-gap length 0:00:00.24

Peak level 100.0 %
Track quality 100.0 %
Test CRC BBBEF99A
Copy CRC BBBEF99A
Copy OK

Track 11
Filename C:\Documents and Settings\Glyn\Desktop\Social Distortion – White Light, White Heat, White Trash\11 – Down Here (With The Rest Of Us).wav

Pre-gap length 0:00:00.89

Peak level 100.0 %
Track quality 100.0 %
Test CRC 25E5134C
Copy CRC 25E5134C
Copy OK

Track 12
Filename C:\Documents and Settings\Glyn\Desktop\Social Distortion – White Light, White Heat, White Trash\12 – Under My Thumb.wav

Pre-gap length 0:00:00.93

Peak level 100.0 %
Track quality 100.0 %
Test CRC 01250E23
Copy CRC 01250E23
Copy OK

No errors occured

End of status report

REM GENRE Punk
REM DATE 1996
REM DISCID 930AEF0C
REM COMMENT “ExactAudioCopy v0.95b4”
PERFORMER “Social Distortion”
TITLE “White Light White Heat White Trash”
FILE “01 – Dear Lover.wav” WAVE
TRACK 01 AUDIO
TITLE “Dear Lover”
PERFORMER “Social Distortion”
INDEX 01 00:00:00
FILE “02 – Don’t Drag Me Down.wav” WAVE
TRACK 02 AUDIO
TITLE “Don’t Drag Me Down”
PERFORMER “Social Distortion”
INDEX 01 00:00:00
TRACK 03 AUDIO
TITLE “Untitled”
PERFORMER “Social Distortion”
INDEX 00 03:50:15
FILE “03 – Untitled.wav” WAVE
INDEX 01 00:00:00
TRACK 04 AUDIO
TITLE “I Was Wrong”
PERFORMER “Social Distortion”
INDEX 00 04:44:72
FILE “04 – I Was Wrong.wav” WAVE
INDEX 01 00:00:00
TRACK 05 AUDIO
TITLE “Through These Eyes”
PERFORMER “Social Distortion”
INDEX 00 03:57:68
FILE “05 – Through These Eyes.wav” WAVE
INDEX 01 00:00:00
TRACK 06 AUDIO
TITLE “Down On The World Again”
PERFORMER “Social Distortion”
INDEX 00 03:14:32
FILE “06 – Down On The World Again.wav” WAVE
INDEX 01 00:00:00
TRACK 07 AUDIO
TITLE “When The Angels Sing”
PERFORMER “Social Distortion”
INDEX 00 03:21:00
FILE “07 – When The Angels Sing.wav” WAVE
INDEX 01 00:00:00
TRACK 08 AUDIO
TITLE “Gotta Know The Rules”
PERFORMER “Social Distortion”
INDEX 00 04:14:33
FILE “08 – Gotta Know The Rules.wav” WAVE
INDEX 01 00:00:00
TRACK 09 AUDIO
TITLE “Crown Of Thorns”
PERFORMER “Social Distortion”
INDEX 00 03:27:53
FILE “09 – Crown Of Thorns.wav” WAVE
INDEX 01 00:00:00
TRACK 10 AUDIO
TITLE “Pleasure Seeker”
PERFORMER “Social Distortion”
INDEX 00 04:15:32
FILE “10 – Pleasure Seeker.wav” WAVE
INDEX 01 00:00:00
TRACK 11 AUDIO
TITLE “Down Here (With The Rest Of Us)”
PERFORMER “Social Distortion”
INDEX 00 03:32:10
FILE “11 – Down Here (With The Rest Of Us).wav” WAVE
INDEX 01 00:00:00
TRACK 12 AUDIO
TITLE “Under My Thumb”
PERFORMER “Social Distortion”
INDEX 00 04:18:73
FILE “12 – Under My Thumb.wav” WAVE
INDEX 01 00:00:00


Leave a Reply

Your email address will not be published. Required fields are marked *

This site uses Akismet to reduce spam. Learn how your comment data is processed.