Social Distortion – Social Distortion




Artist: Social Distortion
Year: 1990
Genre: Rock
Notes: Discogs
Add. Notes:
Cover incl.: Yes
Encoder: FLAC
Bitrate: ~1000 kBit/s (44.1 kHz/16 Bit/s)
Log & Cue incl.: Yes
Size: 280,72 MB
Password: “slam” (without ” “)


All Downloads/Hosters are compatible

Download 1
Turbobit.net
KatFile.com
Rapidgator.net
Download 2
Turbobit.net
KatFile.com
Rapidgator.net

Tracklist:

1 - So Far Away - 3:38
2 - Let It Be Me - 4:16
3 - Story Of My Life - 5:48
4 - Sick Boys - 3:19
5 - Ring Of Fire - 3:52
6 - Ball And Chain - 5:44
7 - It Coulda Been Me - 3:52
8 - She's A Knockout - 3:52
9 - A Place In My Heart - 3:15
10 - Drug Train - 3:43

EAC-Log, CUE-Sheed & NFO:

Click to open spoiler
Exact Audio Copy V0.99 prebeta 3 from 28. July 2007

EAC extraction logfile from 10. December 2007, 16:17

Social Distortion / Social Distortion

Used drive : LITE-ON DVDRW SHW-160P6S Adapter: 1 ID: 0

Read mode : Secure
Utilize accurate stream : Yes
Defeat audio cache : Yes
Make use of C2 pointers : No

Read offset correction : 6
Overread into Lead-In and Lead-Out : No
Fill up missing offset samples with silence : Yes
Delete leading and trailing silent blocks : No
Null samples used in CRC calculations : No
Used interface : Native Win32 interface for Win NT & 2000
Gap handling : Not detected, thus appended to previous track

Used output format : User Defined Encoder
Selected bitrate : 1024 kBit/s
Quality : High
Add ID3 tag : No
Command line compressor : C:\Program Files\Exact Audio Copy\FLAC\FLAC.EXE
Additional command line options : -6 -V -T “ARTIST=%a” -T “TITLE=%t” -T “ALBUM=%g” -T “DATE=%y” -T “TRACKNUMBER=%n” -T “GENRE=%m” -T “COMMENT=%e” %s -o %d

TOC of the extracted CD

Track | Start | Length | Start sector | End sector
———————————————————
1 | 0:00.00 | 3:37.20 | 0 | 16294
2 | 3:37.20 | 4:16.22 | 16295 | 35516
3 | 7:53.42 | 5:48.10 | 35517 | 61626
4 | 13:41.52 | 3:19.00 | 61627 | 76551
5 | 17:00.52 | 3:51.63 | 76552 | 93939
6 | 20:52.40 | 5:43.72 | 93940 | 119736
7 | 26:36.37 | 3:52.28 | 119737 | 137164
8 | 30:28.65 | 3:52.15 | 137165 | 154579
9 | 34:21.05 | 3:15.20 | 154580 | 169224
10 | 37:36.25 | 3:42.00 | 169225 | 185874

Track 1

Filename C:\TORRENTS\Social Distortion – Social Distortion\Social Distortion – Social Distortion – 01 – So Far Away.wav

Peak level 93.9 %
Track quality 100.0 %
Copy CRC F681DF58
Accurately ripped (confidence 3) [84D439FC]
Copy OK

Track 2

Filename C:\TORRENTS\Social Distortion – Social Distortion\Social Distortion – Social Distortion – 02 – Let It Be Me.wav

Peak level 93.9 %
Track quality 100.0 %
Copy CRC 8624DFD0
Accurately ripped (confidence 3) [C9BA6792]
Copy OK

Track 3

Filename C:\TORRENTS\Social Distortion – Social Distortion\Social Distortion – Social Distortion – 03 – Story Of My Life.wav

Peak level 99.2 %
Track quality 100.0 %
Copy CRC 936EEF9F
Accurately ripped (confidence 4) [CA0CB4A2]
Copy OK

Track 4

Filename C:\TORRENTS\Social Distortion – Social Distortion\Social Distortion – Social Distortion – 04 – Sick Boys.wav

Peak level 98.9 %
Track quality 100.0 %
Copy CRC 688F5133
Accurately ripped (confidence 4) [20FD6509]
Copy OK

Track 5

Filename C:\TORRENTS\Social Distortion – Social Distortion\Social Distortion – Social Distortion – 05 – Ring Of Fire.wav

Peak level 100.0 %
Track quality 100.0 %
Copy CRC AFE2A8A9
Accurately ripped (confidence 4) [185E54F4]
Copy OK

Track 6

Filename C:\TORRENTS\Social Distortion – Social Distortion\Social Distortion – Social Distortion – 06 – Ball And Chain.wav

Peak level 99.1 %
Track quality 100.0 %
Copy CRC 93A6E289
Accurately ripped (confidence 3) [ACB57E61]
Copy OK

Track 7

Filename C:\TORRENTS\Social Distortion – Social Distortion\Social Distortion – Social Distortion – 07 – It Coulda Been Me.wav

Peak level 93.9 %
Track quality 100.0 %
Copy CRC 48FDDF4A
Accurately ripped (confidence 4) [86E3B6CD]
Copy OK

Track 8

Filename C:\TORRENTS\Social Distortion – Social Distortion\Social Distortion – Social Distortion – 08 – She’s A Knockout.wav

Peak level 89.0 %
Track quality 100.0 %
Copy CRC 1B60032A
Accurately ripped (confidence 4) [E8350A7D]
Copy OK

Track 9

Filename C:\TORRENTS\Social Distortion – Social Distortion\Social Distortion – Social Distortion – 09 – A Place In My Heart.wav

Peak level 93.8 %
Track quality 99.9 %
Copy CRC FEB77E70
Accurately ripped (confidence 4) [233B2DAB]
Copy OK

Track 10

Filename C:\TORRENTS\Social Distortion – Social Distortion\Social Distortion – Social Distortion – 10 – Drug Train.wav

Peak level 98.9 %
Track quality 100.0 %
Copy CRC E2F89039
Accurately ripped (confidence 3) [E68D3DCF]
Copy OK

All tracks accurately ripped

No errors occurred

End of status report

REM GENRE Rock
REM DATE 1990
REM DISCID 7B09AE0A
REM COMMENT “ExactAudioCopy v0.99pb3”
PERFORMER “Social Distortion”
TITLE “Social Distortion”
FILE “Social Distortion – Social Distortion – 01 – So Far Away.wav” WAVE
TRACK 01 AUDIO
TITLE “So Far Away”
PERFORMER “Social Distortion”
INDEX 01 00:00:00
FILE “Social Distortion – Social Distortion – 02 – Let It Be Me.wav” WAVE
TRACK 02 AUDIO
TITLE “Let It Be Me”
PERFORMER “Social Distortion”
INDEX 01 00:00:00
TRACK 03 AUDIO
TITLE “Story Of My Life”
PERFORMER “Social Distortion”
INDEX 00 04:15:25
FILE “Social Distortion – Social Distortion – 03 – Story Of My Life.wav” WAVE
INDEX 01 00:00:00
TRACK 04 AUDIO
TITLE “Sick Boys”
PERFORMER “Social Distortion”
INDEX 00 05:46:38
FILE “Social Distortion – Social Distortion – 04 – Sick Boys.wav” WAVE
INDEX 01 00:00:00
FILE “Social Distortion – Social Distortion – 05 – Ring Of Fire.wav” WAVE
TRACK 05 AUDIO
TITLE “Ring Of Fire”
PERFORMER “Social Distortion”
INDEX 01 00:00:00
TRACK 06 AUDIO
TITLE “Ball And Chain”
PERFORMER “Social Distortion”
INDEX 00 03:50:63
FILE “Social Distortion – Social Distortion – 06 – Ball And Chain.wav” WAVE
INDEX 01 00:00:00
TRACK 07 AUDIO
TITLE “It Coulda Been Me”
PERFORMER “Social Distortion”
INDEX 00 05:43:17
FILE “Social Distortion – Social Distortion – 07 – It Coulda Been Me.wav” WAVE
INDEX 01 00:00:00
TRACK 08 AUDIO
TITLE “She’s A Knockout”
PERFORMER “Social Distortion”
INDEX 00 03:52:13
FILE “Social Distortion – Social Distortion – 08 – She’s A Knockout.wav” WAVE
INDEX 01 00:00:00
FILE “Social Distortion – Social Distortion – 09 – A Place In My Heart.wav” WAVE
TRACK 09 AUDIO
TITLE “A Place In My Heart”
PERFORMER “Social Distortion”
INDEX 01 00:00:00
TRACK 10 AUDIO
TITLE “Drug Train”
PERFORMER “Social Distortion”
INDEX 00 03:15:13
FILE “Social Distortion – Social Distortion – 10 – Drug Train.wav” WAVE
INDEX 01 00:00:00


Leave a Reply

Your email address will not be published. Required fields are marked *

Enter the text from the image below
 

This site uses Akismet to reduce spam. Learn how your comment data is processed.