Social Distortion – Prison Bound




Artist: Social Distortion
Year: 1988
Genre: Punk
Notes: Discogs
Add. Notes:
Cover incl.: Yes
Encoder: FLAC
Bitrate: ~1000 kBit/s (44.1 kHz/16 Bit/s)
Log & Cue incl.: Yes
Size: 286,39 MB
Password: “slam” (without ” “)


All Downloads/Hosters are compatible

Download 1
Turbobit.net
Rapidgator.net
KatFile.com
UploadRar.com
Download 2
Turbobit.net
Rapidgator.net
KatFile.com
UploadRar.com
Download 3
Turbobit.net
Rapidgator.net
KatFile.com
UploadRar.com

Tracklist:

1 - It's The Law - 2:37
2 - Indulgence - 4:34
3 - Like An Outlaw (For You) - 5:20
4 - Backstreet Girl - 4:21
5 - Prison Bound - 5:22
6 - No Pain No Gain - 3:45
7 - On My Nerves - 4:22
8 - I Want What I Want - 3:01
9 - Lawless - 3:19
10 - Lost Child - 4:18

EAC-Log, CUE-Sheed & NFO:

Click to open spoiler
EAC extraction logfile from 2. March 2007, 14:18 for CD
Social Distortion / Prison Bound

Used drive : BENQ DVD DD DW1640 Adapter: 0 ID: 0
Read mode : Secure with NO C2, accurate stream, disable cache
Read offset correction : 618
Overread into Lead-In and Lead-Out : No

Used output format : C:\Program Files\FLAC\flac.exe (User Defined Encoder)
128 kBit/s
Additional command line options : -V -8 -T “artist=%a” -T “title=%t” -T “album=%g” -T “date=%y” -T “tracknumber=%n” -T “genre=%m” %s

Other options :
Fill up missing offset samples with silence : Yes
Delete leading and trailing silent blocks : No
Native Win32 interface for Win NT & 2000

Track 1
Filename C:\Documents and Settings\Glyn\Desktop\Social Distortion – Prison Bound\01 – It’s The Law.wav

Pre-gap length 0:00:02.42

Peak level 99.9 %
Track quality 99.9 %
Test CRC 759060BC
Copy CRC 759060BC
Copy OK

Track 2
Filename C:\Documents and Settings\Glyn\Desktop\Social Distortion – Prison Bound\02 – Indulgence.wav

Peak level 99.9 %
Track quality 100.0 %
Test CRC 01797931
Copy CRC 01797931
Copy OK

Track 3
Filename C:\Documents and Settings\Glyn\Desktop\Social Distortion – Prison Bound\03 – Like An Outlaw (For You).wav

Peak level 99.8 %
Track quality 100.0 %
Test CRC 68319F2D
Copy CRC 68319F2D
Copy OK

Track 4
Filename C:\Documents and Settings\Glyn\Desktop\Social Distortion – Prison Bound\04 – Backstreet Girl.wav

Peak level 99.9 %
Track quality 100.0 %
Test CRC CE04F269
Copy CRC CE04F269
Copy OK

Track 5
Filename C:\Documents and Settings\Glyn\Desktop\Social Distortion – Prison Bound\05 – Prison Bound.wav

Peak level 99.9 %
Track quality 100.0 %
Test CRC 6C2DD983
Copy CRC 6C2DD983
Copy OK

Track 6
Filename C:\Documents and Settings\Glyn\Desktop\Social Distortion – Prison Bound\06 – No Pain No Gain.wav

Pre-gap length 0:00:01.49

Peak level 99.9 %
Track quality 100.0 %
Test CRC DD7A9AF9
Copy CRC DD7A9AF9
Copy OK

Track 7
Filename C:\Documents and Settings\Glyn\Desktop\Social Distortion – Prison Bound\07 – On My Nerves.wav

Peak level 99.9 %
Track quality 100.0 %
Test CRC E8617201
Copy CRC E8617201
Copy OK

Track 8
Filename C:\Documents and Settings\Glyn\Desktop\Social Distortion – Prison Bound\08 – I Want What I Want.wav

Peak level 99.9 %
Track quality 100.0 %
Test CRC E6251AA9
Copy CRC E6251AA9
Copy OK

Track 9
Filename C:\Documents and Settings\Glyn\Desktop\Social Distortion – Prison Bound\09 – Lawless.wav

Peak level 99.9 %
Track quality 100.0 %
Test CRC 31D5B4FD
Copy CRC 31D5B4FD
Copy OK

Track 10
Filename C:\Documents and Settings\Glyn\Desktop\Social Distortion – Prison Bound\10 – Lost Child.wav

Peak level 99.9 %
Track quality 99.9 %
Test CRC AB058054
Copy CRC AB058054
Copy OK

No errors occured

End of status report

REM GENRE Rock
REM DATE 1988
REM DISCID 6D09A70A
REM COMMENT “ExactAudioCopy v0.95b4”
PERFORMER “Social Distortion”
TITLE “Prison Bound”
FILE “01 – It’s The Law.wav” WAVE
TRACK 01 AUDIO
TITLE “It’s The Law”
PERFORMER “Social Distortion”
PREGAP 00:00:32
INDEX 01 00:00:00
FILE “02 – Indulgence.wav” WAVE
TRACK 02 AUDIO
TITLE “Indulgence”
PERFORMER “Social Distortion”
INDEX 01 00:00:00
FILE “03 – Like An Outlaw (For You).wav” WAVE
TRACK 03 AUDIO
TITLE “Like An Outlaw (For You)”
PERFORMER “Social Distortion”
INDEX 01 00:00:00
FILE “04 – Backstreet Girl.wav” WAVE
TRACK 04 AUDIO
TITLE “Backstreet Girl”
PERFORMER “Social Distortion”
INDEX 01 00:00:00
FILE “05 – Prison Bound.wav” WAVE
TRACK 05 AUDIO
TITLE “Prison Bound”
PERFORMER “Social Distortion”
INDEX 01 00:00:00
TRACK 06 AUDIO
TITLE “No Pain No Gain”
PERFORMER “Social Distortion”
INDEX 00 05:23:33
FILE “06 – No Pain No Gain.wav” WAVE
INDEX 01 00:00:00
FILE “07 – On My Nerves.wav” WAVE
TRACK 07 AUDIO
TITLE “On My Nerves”
PERFORMER “Social Distortion”
INDEX 01 00:00:00
FILE “08 – I Want What I Want.wav” WAVE
TRACK 08 AUDIO
TITLE “I Want What I Want”
PERFORMER “Social Distortion”
INDEX 01 00:00:00
FILE “09 – Lawless.wav” WAVE
TRACK 09 AUDIO
TITLE “Lawless”
PERFORMER “Social Distortion”
INDEX 01 00:00:00
FILE “10 – Lost Child.wav” WAVE
TRACK 10 AUDIO
TITLE “Lost Child”
PERFORMER “Social Distortion”
INDEX 01 00:00:00


Leave a Reply

Your email address will not be published. Required fields are marked *

This site uses Akismet to reduce spam. Learn how your comment data is processed.