Social Distortion – Mommy’s Little Monster




Artist: Social Distortion
Year: 1983
Genre: Punk
Notes: Discogs
Add. Notes:
Cover incl.: Yes
Encoder: FLAC
Bitrate: ~1000 kBit/s (44.1 kHz/16 Bit/s)
Log & Cue incl.: Yes
Size: 227,47 MB
Password: “slam” (without ” “)


All Downloads/Hosters are compatible

Download 1
Turbobit.net
Rapidgator.net
UploadEver.com
KatFile.com
UsersDrive.com
Download 2
Turbobit.net
Rapidgator.net
UploadEver.com
KatFile.com
UsersDrive.com
Download 3
Turbobit.net
Rapidgator.net
UploadEver.com
KatFile.com
UsersDrive.com

Tracklist:

1 - The Creeps - 2:03
2 - Another State Of Mind - 2:38
3 - It Wasn't A Pretty Picture - 3:10
4 - Telling Them - 3:12
5 - Hour Of Darkness - 2:48
6 - Mommy's Little Monster - 3:33
7 - Anti-Fashion - 2:19
8 - All The Answers - 2:23
9 - Moral Threat - 5:16

EAC-Log, CUE-Sheed & NFO:

Click to open spoiler
EAC extraction logfile from 20. February 2007, 22:37 for CD
Social Distortion / Mommy’s Little Monster

Used drive : HL-DT-STCD-ROM GCR-8483B Adapter: 0 ID: 0
Read mode : Secure with NO C2, accurate stream, disable cache
Read offset correction : -24
Overread into Lead-In and Lead-Out : No

Used output format : C:\Program Files\Exact Audio Copy\bin\flac.exe (User Defined Encoder)
320 kBit/s
Additional command line options : -V -8 -T “artist=%a” -T “title=%t” -T “album=%g” -T “date=%y” -T “tracknumber=%n” -T “genre=%m” %s

Other options :
Fill up missing offset samples with silence : Yes
Delete leading and trailing silent blocks : No
Installed external ASPI interface

Track 1
Filename C:\Documents and Settings\Charles\My Documents\My Music\New Rips\Social Distortion-1983-Mommy’s Little Monster FLAC\01 The Creeps.wav

Pre-gap length 0:00:02.37

Peak level 87.7 %
Track quality 99.9 %
Copy CRC 03111FC6
Copy OK

Track 2
Filename C:\Documents and Settings\Charles\My Documents\My Music\New Rips\Social Distortion-1983-Mommy’s Little Monster FLAC\02 Another State Of Mind.wav

Peak level 86.5 %
Track quality 100.0 %
Copy CRC A0B8DEAE
Copy OK

Track 3
Filename C:\Documents and Settings\Charles\My Documents\My Music\New Rips\Social Distortion-1983-Mommy’s Little Monster FLAC\03 It Wasn’t A Pretty Picture.wav

Peak level 76.8 %
Track quality 99.9 %
Copy CRC A8D0AEC2
Copy OK

Track 4
Filename C:\Documents and Settings\Charles\My Documents\My Music\New Rips\Social Distortion-1983-Mommy’s Little Monster FLAC\04 Telling Them.wav

Peak level 82.2 %
Track quality 100.0 %
Copy CRC 84A97560
Copy OK

Track 5
Filename C:\Documents and Settings\Charles\My Documents\My Music\New Rips\Social Distortion-1983-Mommy’s Little Monster FLAC\05 Hour Of Darkness.wav

Peak level 79.4 %
Track quality 100.0 %
Copy CRC 0D46FF17
Copy OK

Track 6
Filename C:\Documents and Settings\Charles\My Documents\My Music\New Rips\Social Distortion-1983-Mommy’s Little Monster FLAC\06 Mommy’s Little Monster.wav

Peak level 86.5 %
Track quality 100.0 %
Copy CRC B030CE80
Copy OK

Track 7
Filename C:\Documents and Settings\Charles\My Documents\My Music\New Rips\Social Distortion-1983-Mommy’s Little Monster FLAC\07 Anti-Fashion.wav

Peak level 77.6 %
Track quality 100.0 %
Copy CRC 7F0E99CB
Copy OK

Track 8
Filename C:\Documents and Settings\Charles\My Documents\My Music\New Rips\Social Distortion-1983-Mommy’s Little Monster FLAC\08 All The Answers.wav

Peak level 85.3 %
Track quality 100.0 %
Copy CRC 8A25582D
Copy OK

Track 9
Filename C:\Documents and Settings\Charles\My Documents\My Music\New Rips\Social Distortion-1983-Mommy’s Little Monster FLAC\09 Moral Threat.wav

Peak level 76.1 %
Track quality 99.9 %
Copy CRC E905A78F
Copy OK

Track 10
Filename C:\Documents and Settings\Charles\My Documents\My Music\New Rips\Social Distortion-1983-Mommy’s Little Monster FLAC\10 Under My Thumb.wav

Peak level 85.0 %
Track quality 100.0 %
Copy CRC 5746C99F
Copy OK

Track 11
Filename C:\Documents and Settings\Charles\My Documents\My Music\New Rips\Social Distortion-1983-Mommy’s Little Monster FLAC\11 Playpen.wav

Peak level 80.2 %
Track quality 99.9 %
Copy CRC A2946B88
Copy OK

No errors occured

End of status report

REM GENRE Punk
REM DATE 1983
REM DISCID 8207910B
REM COMMENT “ExactAudioCopy v0.95b4”
CATALOG 1101000015003
PERFORMER “Social Distortion”
TITLE “Mommy’s Little Monster”
FILE “01 The Creeps.wav” WAVE
TRACK 01 AUDIO
TITLE “The Creeps”
PERFORMER “Social Distortion”
PREGAP 00:00:37
INDEX 01 00:00:00
FILE “02 Another State Of Mind.wav” WAVE
TRACK 02 AUDIO
TITLE “Another State Of Mind”
PERFORMER “Social Distortion”
INDEX 01 00:00:00
FILE “03 It Wasn’t A Pretty Picture.wav” WAVE
TRACK 03 AUDIO
TITLE “It Wasn’t A Pretty Picture”
PERFORMER “Social Distortion”
INDEX 01 00:00:00
FILE “04 Telling Them.wav” WAVE
TRACK 04 AUDIO
TITLE “Telling Them”
PERFORMER “Social Distortion”
INDEX 01 00:00:00
FILE “05 Hour Of Darkness.wav” WAVE
TRACK 05 AUDIO
TITLE “Hour Of Darkness”
PERFORMER “Social Distortion”
INDEX 01 00:00:00
FILE “06 Mommy’s Little Monster.wav” WAVE
TRACK 06 AUDIO
TITLE “Mommy’s Little Monster”
PERFORMER “Social Distortion”
INDEX 01 00:00:00
FILE “07 Anti-Fashion.wav” WAVE
TRACK 07 AUDIO
TITLE “Anti-Fashion”
PERFORMER “Social Distortion”
INDEX 01 00:00:00
FILE “08 All The Answers.wav” WAVE
TRACK 08 AUDIO
TITLE “All The Answers”
PERFORMER “Social Distortion”
INDEX 01 00:00:00
FILE “09 Moral Threat.wav” WAVE
TRACK 09 AUDIO
TITLE “Moral Threat”
PERFORMER “Social Distortion”
INDEX 01 00:00:00
FILE “10 Under My Thumb.wav” WAVE
TRACK 10 AUDIO
TITLE “Under My Thumb”
PERFORMER “Social Distortion”
INDEX 01 00:00:00
FILE “11 Playpen.wav” WAVE
TRACK 11 AUDIO
TITLE “Playpen”
PERFORMER “Social Distortion”
INDEX 01 00:00:00

Leave a Reply

Your email address will not be published. Required fields are marked *

This site uses Akismet to reduce spam. Learn how your comment data is processed.