Social Distortion – Hard Times And Nursery Rhymes




Artist: Social Distortion
Year: 2011
Genre: Rock
Notes: Discogs
Add. Notes:
Cover incl.: Yes
Encoder: FLAC
Bitrate: ~1000 kBit/s (44.1 kHz/16 Bit/s)
Log & Cue incl.: Yes
Size: 340,79 MB
Password: “slam” (without ” “)


All Downloads/Hosters are compatible

Download 1
Turbobit.net
Rapidgator.net
UploadEver.com
KatFile.com
UsersDrive.com
Download 2
Turbobit.net
Rapidgator.net
UploadEver.com
KatFile.com
UsersDrive.com
Download 3
Turbobit.net
Rapidgator.net
UploadEver.com
KatFile.com
UsersDrive.com

Tracklist:

1 Road Zombie 
2 California (Hustle And Flow) 
3 Gimme The Sweet And Lowdown 
4 Diamond In The Rough 
5 Machine Gun Blues 
6 Bakersfield 
7 Far Side Of Nowhere 
8 Alone And Forsaken 
9 Writing On The Wall 
10 Can't Take It With You 
11 Still Alive

EAC-Log, CUE-Sheed & NFO:

Click to open spoiler
Exact Audio Copy V0.99 prebeta 4 from 23. January 2008

EAC extraction logfile from 6. January 2011, 14:19

Social Distortion / Hard Times And Nursery Rhymes

Used drive : PIONEER DVR-113NP Adapter: 1 ID: 0

Read mode : Secure
Utilize accurate stream : Yes
Defeat audio cache : Yes
Make use of C2 pointers : No

Read offset correction : 6
Overread into Lead-In and Lead-Out : No
Fill up missing offset samples with silence : Yes
Delete leading and trailing silent blocks : No
Null samples used in CRC calculations : Yes
Used interface : Native Win32 interface for Win NT & 2000
Gap handling : Appended to previous track

Used output format : User Defined Encoder
Selected bitrate : 320 kBit/s
Quality : High
Add ID3 tag : No
Command line compressor : C:\Program Files\FLAC\flac.exe
Additional command line options : -V -8 -T “artist=%a” -T “title=%t” -T “album=%g” -T “date=%y” -T “tracknumber=%n” -T “genre=%m” %s

TOC of the extracted CD

Track | Start | Length | Start sector | End sector
———————————————————
1 | 0:00.00 | 2:21.21 | 0 | 10595
2 | 2:21.21 | 4:59.44 | 10596 | 33064
3 | 7:20.65 | 3:22.36 | 33065 | 48250
4 | 10:43.26 | 4:34.67 | 48251 | 68867
5 | 15:18.18 | 3:33.13 | 68868 | 84855
6 | 18:51.31 | 6:24.58 | 84856 | 113713
7 | 25:16.14 | 3:28.57 | 113714 | 129370
8 | 28:44.71 | 4:02.32 | 129371 | 147552
9 | 32:47.28 | 5:01.09 | 147553 | 170136
10 | 37:48.37 | 5:01.43 | 170137 | 192754
11 | 42:50.05 | 4:04.66 | 192755 | 211120

Track 1

Filename C:\Documents and Settings\Owner\Desktop\Social Distortion\2011-Hard Times And Nursery Rhymes\01-Road_Zombie.wav

Pre-gap length 0:00:02.00

Peak level 98.3 %
Track quality 100.0 %
Test CRC 53AE29F8
Copy CRC 53AE29F8
Track not present in AccurateRip database
Copy OK

Track 2

Filename C:\Documents and Settings\Owner\Desktop\Social Distortion\2011-Hard Times And Nursery Rhymes\02-California_(Hustle_And_Flow).wav

Peak level 100.0 %
Track quality 100.0 %
Test CRC 5576A835
Copy CRC 5576A835
Track not present in AccurateRip database
Copy OK

Track 3

Filename C:\Documents and Settings\Owner\Desktop\Social Distortion\2011-Hard Times And Nursery Rhymes\03-Gimme_The_Sweet_And_Lowdown.wav

Peak level 98.6 %
Track quality 100.0 %
Test CRC BB156260
Copy CRC BB156260
Track not present in AccurateRip database
Copy OK

Track 4

Filename C:\Documents and Settings\Owner\Desktop\Social Distortion\2011-Hard Times And Nursery Rhymes\04-Diamond_In_The_Rough.wav

Peak level 100.0 %
Track quality 100.0 %
Test CRC EA15E84B
Copy CRC EA15E84B
Track not present in AccurateRip database
Copy OK

Track 5

Filename C:\Documents and Settings\Owner\Desktop\Social Distortion\2011-Hard Times And Nursery Rhymes\05-Machine_Gun_Blues.wav

Peak level 98.9 %
Track quality 99.9 %
Test CRC 99D3FC97
Copy CRC 99D3FC97
Track not present in AccurateRip database
Copy OK

Track 6

Filename C:\Documents and Settings\Owner\Desktop\Social Distortion\2011-Hard Times And Nursery Rhymes\06-Bakersfield.wav

Peak level 98.7 %
Track quality 100.0 %
Test CRC A2C97EAB
Copy CRC A2C97EAB
Track not present in AccurateRip database
Copy OK

Track 7

Filename C:\Documents and Settings\Owner\Desktop\Social Distortion\2011-Hard Times And Nursery Rhymes\07-Far_Side_Of_Nowhere.wav

Peak level 100.0 %
Track quality 100.0 %
Test CRC 5B77F806
Copy CRC 5B77F806
Track not present in AccurateRip database
Copy OK

Track 8

Filename C:\Documents and Settings\Owner\Desktop\Social Distortion\2011-Hard Times And Nursery Rhymes\08-Alone_And_Forsaken.wav

Peak level 100.0 %
Track quality 99.9 %
Test CRC 286ABE44
Copy CRC 286ABE44
Track not present in AccurateRip database
Copy OK

Track 9

Filename C:\Documents and Settings\Owner\Desktop\Social Distortion\2011-Hard Times And Nursery Rhymes\09-Writing_On_The_Wall.wav

Peak level 99.7 %
Track quality 100.0 %
Test CRC 0100932A
Copy CRC 0100932A
Track not present in AccurateRip database
Copy OK

Track 10

Filename C:\Documents and Settings\Owner\Desktop\Social Distortion\2011-Hard Times And Nursery Rhymes\10-Can’t_Take_It_With_You.wav

Peak level 100.0 %
Track quality 100.0 %
Test CRC CCD59C07
Copy CRC CCD59C07
Track not present in AccurateRip database
Copy OK

Track 11

Filename C:\Documents and Settings\Owner\Desktop\Social Distortion\2011-Hard Times And Nursery Rhymes\11-Still_Alive.wav

Peak level 96.6 %
Track quality 100.0 %
Test CRC D6649B29
Copy CRC D6649B29
Track not present in AccurateRip database
Copy OK

None of the tracks are present in the AccurateRip database

No errors occurred

End of status report

REM GENRE “Punk Rock”
REM DATE 2011
REM DISCID 890AFE0B
REM COMMENT “ExactAudioCopy v0.99pb4”
PERFORMER “Social Distortion”
TITLE “Hard Times And Nursery Rhymes”
FILE “01-Road Zombie.flac” WAVE
TRACK 01 AUDIO
TITLE “Road Zombie”
PERFORMER “Social Distortion”
INDEX 01 00:00:00
FILE “02-California (Hustle And Flow).flac” WAVE
TRACK 02 AUDIO
TITLE “California (Hustle And Flow)”
PERFORMER “Social Distortion”
INDEX 01 00:00:00
FILE “03-Gimme The Sweet And Lowdown.flac” WAVE
TRACK 03 AUDIO
TITLE “Gimme The Sweet And Lowdown”
PERFORMER “Social Distortion”
INDEX 01 00:00:00
FILE “04-Diamond In The Rough.flac” WAVE
TRACK 04 AUDIO
TITLE “Diamond In The Rough”
PERFORMER “Social Distortion”
INDEX 01 00:00:00
FILE “05-Machine Gun Blues.flac” WAVE
TRACK 05 AUDIO
TITLE “Machine Gun Blues”
PERFORMER “Social Distortion”
INDEX 01 00:00:00
FILE “06-Bakersfield.flac” WAVE
TRACK 06 AUDIO
TITLE “Bakersfield”
PERFORMER “Social Distortion”
INDEX 01 00:00:00
FILE “07-Far Side Of Nowhere.flac” WAVE
TRACK 07 AUDIO
TITLE “Far Side Of Nowhere”
PERFORMER “Social Distortion”
INDEX 01 00:00:00
FILE “08-Alone And Forsaken.flac” WAVE
TRACK 08 AUDIO
TITLE “Alone And Forsaken”
PERFORMER “Social Distortion”
INDEX 01 00:00:00
FILE “09-Writing On The Wall.flac” WAVE
TRACK 09 AUDIO
TITLE “Writing On The Wall”
PERFORMER “Social Distortion”
INDEX 01 00:00:00
FILE “10-Can’t Take It With You.flac” WAVE
TRACK 10 AUDIO
TITLE “Can’t Take It With You”
PERFORMER “Social Distortion”
INDEX 01 00:00:00
FILE “11-Still Alive.flac” WAVE
TRACK 11 AUDIO
TITLE “Still Alive”
PERFORMER “Social Distortion”
INDEX 01 00:00:00


Leave a Reply

Your email address will not be published. Required fields are marked *

This site uses Akismet to reduce spam. Learn how your comment data is processed.