Smokie – Greatest Hits Vol. 2 (Special Edition)




Artist: Smokie
Year: 2017
Genre: Rock
Notes: Discogs
Add. Notes: Special Edition
Encoder: FLAC
Bitrate: ~1000 kBit/s (44.1 kHz/16 Bit/s)
Bin/Cue incl.: Yes
Size: 538 MB
Password: “slam” (without ” “)


http://www.share-online.biz/dl/6X34LPRP4M9K
http://www.share-online.biz/dl/W0V3LPRPWY
https://rapidgator.net/file/21b5ee43ce88aba51ad20b1c25e5407d
https://rapidgator.net/file/fdd47efb22081d1a24ea7f5cfb1bbbfa
https://uploadbyte.com/38tr5rtsx4h2
https://uploadbyte.com/baidu8u719r3
https://uploadever.com/guc86zzxuvqb
https://uploadever.com/s2zqs4tq0r46

Tracklist:

1 - It's Your Life - 3:33
2 - Oh Carol - 3:39
3 - Mexican Girl - 3:57
4 - Umbrella Day (Bonus Track) - 
3:43
5 - Two Strangers Falling (Bonus 
Track) - 3:40
6 - Baby It's You (Bonus Track) - 
3:49
7 - Stumblin' In - 3:57
8 - Needles And Pins - 2:43
9 - Jet Lagged (Bonus Track) - 2:59
10 - Do To Me - 3:17
11 - Oh Well, Oh Well (Bonus Track) - 
3:16
12 - Don't Throw It Away (Bonus 
Track) - 3:26
13 - Babe It's Up To You - 3:43
14 - Take Good Care Of My Baby - 
3:23
15 - San Francisco Bay - 3:17
16 - Poor Lady (Midnight Baby) 
(Bonus Track) - 4:14
17 - For A Few Dollars More - 3:33
18 - Run To Me - 4:12
19 - Hey Baby (Bonus Track) - 3:11
20 - The Book (Bonus Track) - 3:36
21 - What Can I Do? (Live) (Bonus 
Track) - 4:15

EAC-Log, CUE-Sheed & NFO:

Click to open spoiler
CUE Corrector v. 8.3.5 / b. 913 (Apr. 22, 2019)
————————————————————————————————————————————————————————————————————————
Smokie / Greatest Hits Vol. 2 “Gold” (New Extended Version)

Folder: Smokie – Greatest Hits Vol. 2 (Gold – New Extended Version) (2017) [FLAC]
Audio files:
01. Smokie – It’s Your Life.flac [03:33.427; FLAC • 948 kbps • 16 bit \ 44100 Hz • stereo; 24.13 MB (25 300 867 B)]
02. Smokie – Oh Carol.flac [03:39.133; FLAC • 1008 kbps • 16 bit \ 44100 Hz • stereo; 26.34 MB (27 622 083 B)]
03. Smokie – Mexican Girl.flac [03:57.987; FLAC • 943 kbps • 16 bit \ 44100 Hz • stereo; 26.78 MB (28 075 798 B)]
04. Smokie – Umbrella Day.flac [03:44.373; FLAC • 954 kbps • 16 bit \ 44100 Hz • stereo; 25.53 MB (26 765 937 B)]
05. Smokie – Two Strangers Falling.flac [03:40.360; FLAC • 994 kbps • 16 bit \ 44100 Hz • stereo; 26.12 MB (27 392 112 B)]
06. Smokie – Baby It’s You.flac [03:49.640; FLAC • 928 kbps • 16 bit \ 44100 Hz • stereo; 25.42 MB (26 658 081 B)]
07. Chris Norman – Stumblin’ In.flac [03:56.720; FLAC • 1073 kbps • 16 bit \ 44100 Hz • stereo; 30.29 MB (31 761 628 B)]
08. Smokie – Needles and Pins.flac [02:43.893; FLAC • 1071 kbps • 16 bit \ 44100 Hz • stereo; 20.93 MB (21 943 286 B)]
09. Smokie – Jet Lagged.flac [02:58.373; FLAC • 1059 kbps • 16 bit \ 44100 Hz • stereo; 22.53 MB (23 619 795 B)]
10. Smokie – Do to Me.flac [03:18.093; FLAC • 973 kbps • 16 bit \ 44100 Hz • stereo; 22.99 MB (24 102 866 B)]
11. Smokie – Oh Well, Oh Well.flac [03:16.400; FLAC • 994 kbps • 16 bit \ 44100 Hz • stereo; 23.28 MB (24 414 595 B)]
12. Smokie – Don’t Throw It Away.flac [03:26.320; FLAC • 975 kbps • 16 bit \ 44100 Hz • stereo; 23.98 MB (25 146 666 B)]
13. Smokie – Babe It’s Up to You.flac [03:42.040; FLAC • 951 kbps • 16 bit \ 44100 Hz • stereo; 25.18 MB (26 401 785 B)]
14. Smokie – Take Good Care of My Baby.flac [03:23.693; FLAC • 1019 kbps • 16 bit \ 44100 Hz • stereo; 24.75 MB (25 956 225 B)]
15. Smokie – San Francisco Bay.flac [03:15.573; FLAC • 959 kbps • 16 bit \ 44100 Hz • stereo; 22.36 MB (23 449 144 B)]
16. Smokie – Poor Lady (Midnight Baby).flac [04:41.387; FLAC • 1004 kbps • 16 bit \ 44100 Hz • stereo; 33.69 MB (35 331 085 B)]
17. Smokie – For a Few Dollars More.flac [03:33.200; FLAC • 1010 kbps • 16 bit \ 44100 Hz • stereo; 25.68 MB (26 924 326 B)]
18. Smokie – Run to Me.flac [04:11.293; FLAC • 1006 kbps • 16 bit \ 44100 Hz • stereo; 30.16 MB (31 624 509 B)]
19. Smokie – Hey Baby.flac [02:53.787; FLAC • 1011 kbps • 16 bit \ 44100 Hz • stereo; 20.96 MB (21 978 285 B)]
20. Smokie – The Book.flac [03:37.347; FLAC • 1045 kbps • 16 bit \ 44100 Hz • stereo; 27.08 MB (28 397 110 B)]
21. Smokie – What Can I Do_ (Live Edit).flac [04:15.640; FLAC • 949 kbps • 16 bit \ 44100 Hz • stereo; 28.94 MB (30 349 205 B)]

Accuracy: -m0

File 01. Smokie – It’s Your Life – 100% CDDA [03:33:32]
File 02. Smokie – Oh Carol – 100% CDDA [03:39:10]
File 03. Smokie – Mexican Girl – 99% CDDA [03:57:74]
File 04. Smokie – Umbrella Day – 99% CDDA [03:44:28]
File 05. Smokie – Two Strangers Falling – 100% CDDA [03:40:27]
File 06. Smokie – Baby It’s You – 100% CDDA [03:49:48]
File 07. Chris Norman – Stumblin’ In – 100% CDDA [03:56:54]
File 08. Smokie – Needles and Pins – 100% CDDA [02:43:67]
File 09. Smokie – Jet Lagged – 100% CDDA [02:58:28]
File 10. Smokie – Do to Me – 100% CDDA [03:18:07]
File 11. Smokie – Oh Well, Oh Well – 100% CDDA [03:16:30]
File 12. Smokie – Don’t Throw It Away – 100% CDDA [03:26:24]
File 13. Smokie – Babe It’s Up to You – 100% CDDA [03:42:03]
File 14. Smokie – Take Good Care of My Baby – 100% CDDA [03:23:52]
File 15. Smokie – San Francisco Bay – 100% CDDA [03:15:43]
File 16. Smokie – Poor Lady (Midnight Baby) – 100% CDDA [04:41:29]
File 17. Smokie – For a Few Dollars More – 100% CDDA [03:33:15]
File 18. Smokie – Run to Me – 100% CDDA [04:11:22]
File 19. Smokie – Hey Baby – 91% MPEG [02:53:59]
File 20. Smokie – The Book – 92% MPEG [03:37:26]
File 21. Smokie – What Can I Do_ (Live Edit) – 99% CDDA [04:15:48]
————— Summary: —————
These tracks looks like CDDA with probability 100%.
————————————————————————————————————————————————————————————————————————

ANALYZER:
auCDtect: CD records authenticity detector, version 0.8.2
Copyright (c) 2004 Oleg Berngardt. All rights reserved.
Copyright (c) 2004 Alexander Djourik. All rights reserved.

Time elapsed: 4 m 45 s
Log created at May 04, 2019 05:38:05

=== AC1F95E8922646E68D87C8330E2FE7F8C1F31EECEB299BFA1933A614DB34FF26 ===
REM GENRE Rock
REM DATE 2017
REM COMMENT eXenz
REM DISCNUMBER 1
REM TOTALDISCS 1
PERFORMER Smokie
TITLE “Greatest Hits Vol. 2 ”Gold” (New Extended Version)”
FILE “01 – It’s Your Life.flac” WAVE
TRACK 01 AUDIO
TITLE “It’s Your Life”
PERFORMER Smokie
INDEX 01 00:00:00
FILE “02 – Oh Carol.flac” WAVE
TRACK 02 AUDIO
TITLE “Oh Carol”
PERFORMER Smokie
INDEX 01 00:00:00
FILE “03 – Mexican Girl.flac” WAVE
TRACK 03 AUDIO
TITLE “Mexican Girl”
PERFORMER Smokie
INDEX 01 00:00:00
FILE “04 – Umbrella Day.flac” WAVE
TRACK 04 AUDIO
TITLE “Umbrella Day”
PERFORMER Smokie
INDEX 01 00:00:00
FILE “05 – Two Strangers Falling.flac” WAVE
TRACK 05 AUDIO
TITLE “Two Strangers Falling”
PERFORMER Smokie
INDEX 01 00:00:00
FILE “06 – Baby It’s You.flac” WAVE
TRACK 06 AUDIO
TITLE “Baby It’s You”
PERFORMER Smokie
INDEX 01 00:00:00
FILE “07 – Stumblin’ In.flac” WAVE
TRACK 07 AUDIO
TITLE “Stumblin’ In”
PERFORMER “Chris Norman, Suzi Quatro”
INDEX 01 00:00:00
FILE “08 – Needles and Pins.flac” WAVE
TRACK 08 AUDIO
TITLE “Needles and Pins”
PERFORMER Smokie
INDEX 01 00:00:00
FILE “09 – Jet Lagged.flac” WAVE
TRACK 09 AUDIO
TITLE “Jet Lagged”
PERFORMER Smokie
INDEX 01 00:00:00
FILE “10 – Do to Me.flac” WAVE
TRACK 10 AUDIO
TITLE “Do to Me”
PERFORMER Smokie
INDEX 01 00:00:00
FILE “11 – Oh Well, Oh Well.flac” WAVE
TRACK 11 AUDIO
TITLE “Oh Well, Oh Well”
PERFORMER Smokie
INDEX 01 00:00:00
FILE “12 – Don’t Throw It Away.flac” WAVE
TRACK 12 AUDIO
TITLE “Don’t Throw It Away”
PERFORMER Smokie
INDEX 01 00:00:00
FILE “13 – Babe It’s Up to You.flac” WAVE
TRACK 13 AUDIO
TITLE “Babe It’s Up to You”
PERFORMER Smokie
INDEX 01 00:00:00
FILE “14 – Take Good Care of My Baby.flac” WAVE
TRACK 14 AUDIO
TITLE “Take Good Care of My Baby”
PERFORMER Smokie
INDEX 01 00:00:00
FILE “15 – San Francisco Bay.flac” WAVE
TRACK 15 AUDIO
TITLE “San Francisco Bay”
PERFORMER Smokie
INDEX 01 00:00:00
FILE “16 – Poor Lady (Midnight Baby).flac” WAVE
TRACK 16 AUDIO
TITLE “Poor Lady (Midnight Baby)”
PERFORMER Smokie
INDEX 01 00:00:00
FILE “17 – For a Few Dollars More.flac” WAVE
TRACK 17 AUDIO
TITLE “For a Few Dollars More”
PERFORMER Smokie
INDEX 01 00:00:00
FILE “18 – Run to Me.flac” WAVE
TRACK 18 AUDIO
TITLE “Run to Me”
PERFORMER Smokie
INDEX 01 00:00:00
FILE “19 – Hey Baby.flac” WAVE
TRACK 19 AUDIO
TITLE “Hey Baby”
PERFORMER “Smokie, Chris Norman”
INDEX 01 00:00:00
FILE “20 – The Book.flac” WAVE
TRACK 20 AUDIO
TITLE “The Book”
PERFORMER Smokie
INDEX 01 00:00:00
FILE “21 – What Can I Do (Live Edit).flac” WAVE
TRACK 21 AUDIO
TITLE “What Can I Do? (Live Edit)”
PERFORMER Smokie
INDEX 01 00:00:00

Leave a Reply

Your email address will not be published. Required fields are marked *

This site uses Akismet to reduce spam. Learn how your comment data is processed.