Smokie – Greatest Hits Vol. 1 (Special Edition)




Artist: Smokie
Year: 2017
Genre: Rock
Notes: Discogs
Add. Notes: Special Edition
Encoder: FLAC
Bitrate: ~1000 kBit/s (44.1 kHz/16 Bit/s)
Bin/Cue incl.: Yes
Size: 546 MB
Password: “slam” (without ” “)


http://www.share-online.biz/dl/78I3LPRPANC6
http://www.share-online.biz/dl/5ZV2LPRPRNP5
https://rapidgator.net/file/0a1b80107d48efc7654d82d19e356ed1
https://rapidgator.net/file/a7f86bcf50d06f66ed2c7a1f006f230c
https://uploadbyte.com/83l6gubgin7b
https://uploadbyte.com/n1jg1wtluhmf
https://uploadever.com/cmp62ejyqmbb
https://uploadever.com/xxn23ylt1gs7

Tracklist:

1 - Lay Back In The Arms Of 
Someone - 4:04
2 - Something's Been Making Me 
Blue - 3:00
3 - If You Think You Know How To 
Love Me - 3:23
4 - Looking Daggers (Bonus Track) - 
3:43
5 - Pass It Around - 3:06
6 - Rock Away Your Teadrops (Bonus 
Track) - 3:45
7 - I'll Meet You At Midnight - 3:14
8 - Number On My Wall (Bonus 
Track) - 3:38
9 - Living Next Door To Alice - 3:26
10 - Changing All The Time - 3:24
11 - Hiding From The Night (Bonus 
Track) - 3:45
12 - I'm In Love With You (Bonus 
Track) - 3:27
13 - Don't Play Your Rock 'n' Roll To 
Me - 3:19
14 - No More Letters (Bonus Track) - 
3:27
15 - Hearts Need Company (Bonus 
Track) - 4:21
16 - Back To Bradford - 2:43
17 - Wild Wild Angels - 3:55
18 - Love Remains A Stranger (Bonus 
Track) - 3:56
19 - Belinda (Bonus Track) - 2:59
20 - Little Town Flirt (Bonus Track) - 
3:25
21 - If You Think You Know How To 
Love Me (Radio Edit) 
(Bonus Track) - 3:03
22 - The Girl Can't Help It (Live At 
Grugahalle, Essen, 
1978) (Bonus Track) - 3:54

EAC-Log, CUE-Sheed & NFO:

Click to open spoiler
CUE Corrector v. 8.3.5 / b. 913 (Apr. 22, 2019)
————————————————————————————————————————————————————————————————————————
Smokie / Greatest Hits Vol. 1 “White” (New Extended Version)

Folder: Smokie – Greatest Hits Vol. 1 (White – New Extended Version) (2017) [FLAC]
Audio files:
01. Smokie – Lay Back in the Arms of Someone.flac [04:05.747; FLAC • 1026 kbps • 16 bit \ 44100 Hz • stereo; 30.06 MB (31 517 159 B)]
02. Smokie – Something’s Been Making Me Blue.flac [02:59.667; FLAC • 1018 kbps • 16 bit \ 44100 Hz • stereo; 21.82 MB (22 879 014 B)]
03. Smokie – If You Think You Know How to Love Me.flac [03:25.333; FLAC • 967 kbps • 16 bit \ 44100 Hz • stereo; 23.67 MB (24 823 569 B)]
04. Smokie – Looking Daggers.flac [03:43.893; FLAC • 1083 kbps • 16 bit \ 44100 Hz • stereo; 28.92 MB (30 320 718 B)]
05. Smokie – Pass It Around.flac [03:05.640; FLAC • 969 kbps • 16 bit \ 44100 Hz • stereo; 21.45 MB (22 489 277 B)]
06. Smokie – Rock Away Your Teardrops.flac [03:45.920; FLAC • 957 kbps • 16 bit \ 44100 Hz • stereo; 25.78 MB (27 037 280 B)]
07. Smokie – I’ll Meet You at Midnight.flac [03:15.453; FLAC • 992 kbps • 16 bit \ 44100 Hz • stereo; 23.13 MB (24 253 533 B)]
08. Smokie – Number on My Wall.flac [03:39.160; FLAC • 1011 kbps • 16 bit \ 44100 Hz • stereo; 26.43 MB (27 713 797 B)]
09. Smokie – Living Next Door to Alice.flac [03:27.173; FLAC • 962 kbps • 16 bit \ 44100 Hz • stereo; 23.77 MB (24 929 073 B)]
10. Smokie – Changing All the Time.flac [03:22.093; FLAC • 975 kbps • 16 bit \ 44100 Hz • stereo; 23.50 MB (24 641 377 B)]
11. Smokie – Hiding from the Night.flac [03:46.627; FLAC • 843 kbps • 16 bit \ 44100 Hz • stereo; 22.79 MB (23 899 174 B)]
12. Smokie – I’m in Love with You.flac [03:28.200; FLAC • 911 kbps • 16 bit \ 44100 Hz • stereo; 22.63 MB (23 734 024 B)]
13. Smokie – Don’t Play Your Rock ‘N’ Roll to Me.flac [03:17.733; FLAC • 1061 kbps • 16 bit \ 44100 Hz • stereo; 25.02 MB (26 232 345 B)]
14. Smokie – No More Letters.flac [03:28.507; FLAC • 955 kbps • 16 bit \ 44100 Hz • stereo; 23.74 MB (24 891 706 B)]
15. Smokie – Hearts Need Company.flac [04:21.413; FLAC • 973 kbps • 16 bit \ 44100 Hz • stereo; 30.33 MB (31 804 702 B)]
16. Smokie – Back to Bradford.flac [02:41.853; FLAC • 1075 kbps • 16 bit \ 44100 Hz • stereo; 20.75 MB (21 758 853 B)]
17. Smokie – Wild Wild Angels.flac [03:56.160; FLAC • 970 kbps • 16 bit \ 44100 Hz • stereo; 27.33 MB (28 660 583 B)]
18. Smokie – Love Remains a Stranger.flac [04:00.840; FLAC • 993 kbps • 16 bit \ 44100 Hz • stereo; 28.54 MB (29 921 778 B)]
19. Smokie – Belinda.flac [02:59.240; FLAC • 981 kbps • 16 bit \ 44100 Hz • stereo; 20.97 MB (21 988 369 B)]
20. Smokie – Little Town Flirt.flac [03:23.653; FLAC • 996 kbps • 16 bit \ 44100 Hz • stereo; 24.19 MB (25 362 242 B)]
21. Smokie – If You Think You Know How to Love Me (Jay Frog & Amfree Mix Radio Edit).flac [03:03.347; FLAC • 980 kbps • 16 bit \ 44100 Hz • stereo; 21.43 MB (22 474 876 B)]
22. Smokie – The Girl Can’t Help It (Live).flac [03:54.613; FLAC • 1022 kbps • 16 bit \ 44100 Hz • stereo; 28.59 MB (29 981 188 B)]

Accuracy: -m0

File 01. Smokie – Lay Back in the Arms of Someone – 100% CDDA [04:05:56]
File 02. Smokie – Something’s Been Making Me Blue – 100% CDDA [02:59:50]
File 03. Smokie – If You Think You Know How to Love Me – 100% CDDA [03:25:25]
File 04. Smokie – Looking Daggers – 43% CDDA [03:43:67]
File 05. Smokie – Pass It Around – 100% CDDA [03:05:48]
File 06. Smokie – Rock Away Your Teardrops – unknown [03:45:69]
File 07. Smokie – I’ll Meet You at Midnight – 100% CDDA [03:15:34]
File 08. Smokie – Number on My Wall – 100% CDDA [03:39:12]
File 09. Smokie – Living Next Door to Alice – 100% CDDA [03:27:13]
File 10. Smokie – Changing All the Time – 100% CDDA [03:22:07]
File 11. Smokie – Hiding from the Night – 42% CDDA [03:46:47]
File 12. Smokie – I’m in Love with You – 100% CDDA [03:28:15]
File 13. Smokie – Don’t Play Your Rock ‘N’ Roll to Me – 100% CDDA [03:17:55]
File 14. Smokie – No More Letters – 99% CDDA [03:28:38]
File 15. Smokie – Hearts Need Company – unknown [04:21:31]
File 16. Smokie – Back to Bradford – 100% CDDA [02:41:64]
File 17. Smokie – Wild Wild Angels – 100% CDDA [03:56:12]
File 18. Smokie – Love Remains a Stranger – 100% CDDA [04:00:63]
File 19. Smokie – Belinda – 100% CDDA [02:59:18]
File 20. Smokie – Little Town Flirt – 100% CDDA [03:23:49]
File 21. Smokie – If You Think You Know How to Love Me (Jay Frog & Amfree Mix Radio Edit) – 100% CDDA [03:03:26]
File 22. Smokie – The Girl Can’t Help It (Live) – 100% CDDA [03:54:46]
————— Summary: —————
These tracks looks like CDDA with probability 100%.
————————————————————————————————————————————————————————————————————————

ANALYZER:
auCDtect: CD records authenticity detector, version 0.8.2
Copyright (c) 2004 Oleg Berngardt. All rights reserved.
Copyright (c) 2004 Alexander Djourik. All rights reserved.

Time elapsed: 5 m 33 s
Log created at May 04, 2019 05:28:13

=== EDBE4B08A30AC31B4949950CDAEBB5A07346F5A285D57A412802527C718E8A33 ===
REM GENRE Rock
REM DATE 2017
REM COMMENT eXenz
REM DISCNUMBER 1
REM TOTALDISCS 1
PERFORMER Smokie
TITLE “Greatest Hits Vol. 1 ”White” (New Extended Version)”
FILE “01 – Lay Back in the Arms of Someone.flac” WAVE
TRACK 01 AUDIO
TITLE “Lay Back in the Arms of Someone”
PERFORMER Smokie
INDEX 01 00:00:00
FILE “02 – Something’s Been Making Me Blue.flac” WAVE
TRACK 02 AUDIO
TITLE “Something’s Been Making Me Blue”
PERFORMER Smokie
INDEX 01 00:00:00
FILE “03 – If You Think You Know How to Love Me.flac” WAVE
TRACK 03 AUDIO
TITLE “If You Think You Know How to Love Me”
PERFORMER Smokie
INDEX 01 00:00:00
FILE “04 – Looking Daggers.flac” WAVE
TRACK 04 AUDIO
TITLE “Looking Daggers”
PERFORMER Smokie
INDEX 01 00:00:00
FILE “05 – Pass It Around.flac” WAVE
TRACK 05 AUDIO
TITLE “Pass It Around”
PERFORMER Smokie
INDEX 01 00:00:00
FILE “06 – Rock Away Your Teardrops.flac” WAVE
TRACK 06 AUDIO
TITLE “Rock Away Your Teardrops”
PERFORMER “Smokie, Chris Norman”
INDEX 01 00:00:00
FILE “07 – I’ll Meet You at Midnight.flac” WAVE
TRACK 07 AUDIO
TITLE “I’ll Meet You at Midnight”
PERFORMER Smokie
INDEX 01 00:00:00
FILE “08 – Number on My Wall.flac” WAVE
TRACK 08 AUDIO
TITLE “Number on My Wall”
PERFORMER Smokie
INDEX 01 00:00:00
FILE “09 – Living Next Door to Alice.flac” WAVE
TRACK 09 AUDIO
TITLE “Living Next Door to Alice”
PERFORMER Smokie
INDEX 01 00:00:00
FILE “10 – Changing All the Time.flac” WAVE
TRACK 10 AUDIO
TITLE “Changing All the Time”
PERFORMER Smokie
INDEX 01 00:00:00
FILE “11 – Hiding from the Night.flac” WAVE
TRACK 11 AUDIO
TITLE “Hiding from the Night”
PERFORMER Smokie
INDEX 01 00:00:00
FILE “12 – I’m in Love with You.flac” WAVE
TRACK 12 AUDIO
TITLE “I’m in Love with You”
PERFORMER Smokie
INDEX 01 00:00:00
FILE “13 – Don’t Play Your Rock ‘N’ Roll to Me.flac” WAVE
TRACK 13 AUDIO
TITLE “Don’t Play Your Rock ‘N’ Roll to Me”
PERFORMER Smokie
INDEX 01 00:00:00
FILE “14 – No More Letters.flac” WAVE
TRACK 14 AUDIO
TITLE “No More Letters”
PERFORMER Smokie
INDEX 01 00:00:00
FILE “15 – Hearts Need Company.flac” WAVE
TRACK 15 AUDIO
TITLE “Hearts Need Company”
PERFORMER “Smokie, Chris Norman”
INDEX 01 00:00:00
FILE “16 – Back to Bradford.flac” WAVE
TRACK 16 AUDIO
TITLE “Back to Bradford”
PERFORMER Smokie
INDEX 01 00:00:00
FILE “17 – Wild Wild Angels.flac” WAVE
TRACK 17 AUDIO
TITLE “Wild Wild Angels”
PERFORMER Smokie
INDEX 01 00:00:00
FILE “18 – Love Remains a Stranger.flac” WAVE
TRACK 18 AUDIO
TITLE “Love Remains a Stranger”
PERFORMER Smokie
INDEX 01 00:00:00
FILE “19 – Belinda.flac” WAVE
TRACK 19 AUDIO
TITLE Belinda
PERFORMER Smokie
INDEX 01 00:00:00
FILE “20 – Little Town Flirt.flac” WAVE
TRACK 20 AUDIO
TITLE “Little Town Flirt”
PERFORMER Smokie
INDEX 01 00:00:00
FILE “21 – If You Think You Know How to Love Me (Jay Frog & Amfree Mix Radio Edit).flac” WAVE
TRACK 21 AUDIO
TITLE “If You Think You Know How to Love Me (Jay Frog & Amfree Mix Radio Edit)”
PERFORMER Smokie
INDEX 01 00:00:00
FILE “22 – The Girl Can’t Help It (Live).flac” WAVE
TRACK 22 AUDIO
TITLE “The Girl Can’t Help It (Live)”
PERFORMER Smokie
INDEX 01 00:00:00

Leave a Reply

Your email address will not be published. Required fields are marked *

This site uses Akismet to reduce spam. Learn how your comment data is processed.