Slipknot – Vol. 3: (The Subliminal Verses) (Japanese Edition)




[Total: 0    Average: 0/5]

Artist: Slipknot
Year: 2004
Genre: Metal
Notes: Discogs
Add. Notes: Japanese Edition
Cover incl.: Yes
Encoder: FLAC
Bitrate: ~1000 kBit/s (44.1 kHz/16 Bit/s)
Log & Cue incl.: Yes
Size: 466,43 MB
Password: “slam” (without ” “)


All Downloads/Hosters are compatible

Download 1
Share-online.biz
NitroFlare.com
KatFile.com
Rapidgator.net
Download 2
Share-online.biz
NitroFlare.com
KatFile.com
Rapidgator.net

Tracklist:

1 - Prelude 3.0 - 3:57
2 - The Blister Exists - 5:19
3 - Three Nil - 4:48
4 - Duality - 4:12
5 - Opium Of The People - 3:12
6 - Circle - 4:22
7 - Welcome - 3:15
8 - Vermilion - 5:16
9 - Pulse Of The Maggots - 4:19
10 - Before I Forget - 4:38
11 - Vermilion Pt. 2 - 3:44
12 - The Nameless - 4:28
13 - The Virus Of Life - 5:25
14 - Danger - Keep Away - 3:15
15 - Scream - 4:30

EAC-Log, CUE-Sheed & NFO:

Click to open spoiler
Exact Audio Copy V1.0 beta 3 from 29. August 2011

Отчёт EAC об извлечении, выполненном 17. октября 2014, 22:29

Slipknot / Vol. 3: (The Subliminal Verses)

Дисковод: ASUS BW-12B1ST Adapter: 3 ID: 0

Режим чтения : Достоверность
Использование точного потока : Да
Отключение кэша аудио : Да
Использование указателей C2 : Нет

Коррекция смещения при чтении : 6
Способность читать области Lead-in и Lead-out : Нет
Заполнение пропущенных сэмплов тишиной : Да
Удаление блоков с тишиной в начале и конце : Нет
При вычислениях CRC использовались нулевые сэмплы : Да
Интерфейс : Встроенный Win32-интерфейс для Win NT/2000

Выходной формат : Внутренние WAV-операции
Формат сэмплов : 44.100 Гц; 16 бит; стерео

TOC извлечённого CD

Трек | Старт | Длительность | Начальный сектор | Конечный сектор
———————————————————————
1 | 0:00.00 | 3:57.22 | 0 | 17796
2 | 3:57.22 | 5:19.32 | 17797 | 41753
3 | 9:16.54 | 4:48.24 | 41754 | 63377
4 | 14:05.03 | 4:12.46 | 63378 | 82323
5 | 18:17.49 | 3:12.44 | 82324 | 96767
6 | 21:30.18 | 4:22.74 | 96768 | 116491
7 | 25:53.17 | 3:15.31 | 116492 | 131147
8 | 29:08.48 | 5:16.50 | 131148 | 154897
9 | 34:25.23 | 4:19.55 | 154898 | 174377
10 | 38:45.03 | 4:38.45 | 174378 | 195272
11 | 43:23.48 | 3:44.24 | 195273 | 212096
12 | 47:07.72 | 4:28.03 | 212097 | 232199
13 | 51:36.00 | 5:25.32 | 232200 | 256606
14 | 57:01.32 | 3:15.68 | 256607 | 271299
15 | 60:17.25 | 4:30.01 | 271300 | 291550

Характеристики диапазона извлечения и сообщения об ошибках

Выбранный диапазон

Имя файла D:\EAC\Slipknot – 2004 – Vol.3 (The Subliminal Verses) (Roadrunner Records – WPCR-15978)\Slipknot – 2004 – Vol. 3 (The Subliminal Verses).wav

Пиковый уровень 100.0 %
Скорость извлечения 3.6 X
Качество диапазона 100.0 %
CRC теста 3A0EE77B
CRC копии 3A0EE77B
Копирование… OK

Ошибок не произошло

AccurateRip: сводка

Трек 1 точность не определена (достоверность 1) [9A66BB39], AccurateRip вернул [6D55E606] (AR v2)
Трек 2 точность не определена (достоверность 1) [EFA8038B], AccurateRip вернул [809A5861] (AR v2)
Трек 3 точность не определена (достоверность 1) [2F246A69], AccurateRip вернул [B6834FA2] (AR v2)
Трек 4 точность не определена (достоверность 1) [B41C2349], AccurateRip вернул [28FFE13A] (AR v2)
Трек 5 точность не определена (достоверность 1) [E75DD70D], AccurateRip вернул [A8FE1BB6] (AR v2)
Трек 6 точность не определена (достоверность 1) [2AB1E88A], AccurateRip вернул [547DCA5F] (AR v2)
Трек 7 точность не определена (достоверность 1) [8B82957A], AccurateRip вернул [002A634A] (AR v2)
Трек 8 точность не определена (достоверность 1) [B17B435E], AccurateRip вернул [5A6930BD] (AR v2)
Трек 9 точность не определена (достоверность 1) [AB56B9E4], AccurateRip вернул [6E3E18D9] (AR v2)
Трек 10 точность не определена (достоверность 1) [BDB82B05], AccurateRip вернул [DA598206] (AR v2)
Трек 11 точность не определена (достоверность 1) [DAB4F9B8], AccurateRip вернул [A3007B70] (AR v2)
Трек 12 точность не определена (достоверность 1) [394D395D], AccurateRip вернул [1A5F0F12] (AR v2)
Трек 13 точность не определена (достоверность 1) [C071297A], AccurateRip вернул [CD6BE026] (AR v2)
Трек 14 точность не определена (достоверность 1) [29C5AFB0], AccurateRip вернул [CC51CCDE] (AR v2)
Трек 15 точность не определена (достоверность 1) [7A6F9154], AccurateRip вернул [ABB2A1C2] (AR v2)

Ни один трек не прошёл проверки на точность
В вашей базе может быть иной вариант штамповки диска

Конец отчёта

==== Контрольная сумма отчёта 2DA5C90B7645E965885939FF47D631CE83628D61C6BC4A2A01A56A53B95942DF ====

REM GENRE Metal
REM DATE 2004
REM DISCID E50F2F0F
REM COMMENT “ExactAudioCopy v1.0b3”
PERFORMER “Slipknot”
TITLE “Vol. 3: (The Subliminal Verses)”
FILE “Slipknot – 2004 – Vol. 3 (The Subliminal Verses).flac” WAVE
TRACK 01 AUDIO
TITLE “Prelude”
PERFORMER “Slipknot”
ISRC NLA320420816
INDEX 01 00:00:00
TRACK 02 AUDIO
TITLE “The Blister Exists”
PERFORMER “Slipknot”
ISRC NLA320420817
INDEX 01 03:57:22
TRACK 03 AUDIO
TITLE “Three Nil”
PERFORMER “Slipknot”
ISRC NLA320420818
INDEX 01 09:16:54
TRACK 04 AUDIO
TITLE “Duality”
PERFORMER “Slipknot”
ISRC NLA320420785
INDEX 01 14:05:03
TRACK 05 AUDIO
TITLE “Opium Of The People”
PERFORMER “Slipknot”
ISRC NLA320420820
INDEX 01 18:17:49
TRACK 06 AUDIO
TITLE “Circle”
PERFORMER “Slipknot”
ISRC NLA320420823
INDEX 01 21:30:18
TRACK 07 AUDIO
TITLE “Welcome”
PERFORMER “Slipknot”
ISRC NLA320420822
INDEX 01 25:53:17
TRACK 08 AUDIO
TITLE “Vermilion”
PERFORMER “Slipknot”
ISRC NLA320420821
INDEX 01 29:08:48
TRACK 09 AUDIO
TITLE “Pulse Of The Maggots”
PERFORMER “Slipknot”
ISRC NLA320420786
INDEX 01 34:25:23
TRACK 10 AUDIO
TITLE “Before I Forget”
PERFORMER “Slipknot”
ISRC NLA320420824
INDEX 01 38:45:03
TRACK 11 AUDIO
TITLE “Vermilion Pt. 2”
PERFORMER “Slipknot”
ISRC NLA320420826
INDEX 01 43:23:48
TRACK 12 AUDIO
TITLE “The Nameless”
PERFORMER “Slipknot”
ISRC NLA320420825
INDEX 01 47:07:72
TRACK 13 AUDIO
TITLE “The Virus Of Life”
PERFORMER “Slipknot”
ISRC NLA320420827
INDEX 01 51:36:00
TRACK 14 AUDIO
TITLE “Danger – Keep Away”
PERFORMER “Slipknot”
ISRC NLA320420828
INDEX 01 57:01:32
TRACK 15 AUDIO
TITLE “Scream”
PERFORMER “Slipknot”
ISRC NLA320420830
INDEX 00 60:15:25
INDEX 01 60:17:25


Spread the Download

Leave a Reply

Your email address will not be published. Required fields are marked *

Enter the text from the image below
 

This site uses Akismet to reduce spam. Learn how your comment data is processed.