Slipknot – Slipknot (10th Anniversary Edition)




[Total: 0    Average: 0/5]

Artist: Slipknot
Year: 1999/2009
Genre: Metal
Notes: Discogs
Add. Notes: 10th Anniversary Edition
Cover incl.: No
Encoder: FLAC
Bitrate: ~1000 kBit/s (44.1 kHz/16 Bit/s)
Log & Cue incl.: Yes
Size: 591,67 MB
Password: “slam” (without ” “)


All Downloads/Hosters are compatible

Download 1
Share-online.biz
KatFile.com
Rapidgator.net
Download 2
Share-online.biz
KatFile.com
Rapidgator.net

Tracklist:

1 - 742617000027 - 0:36
2 - (Sic) - 3:20
3 - Eyeless - 3:56
4 - Wait And Bleed - 2:28
5 - Surfacing - 3:38
6 - Spit It Out - 2:40
7 - Tattered & Torn - 2:54
8 - Purity - 4:25
9 - Liberate - 3:07
10 - Prosthetics - 4:58
11 - No Life - 2:47
12 - Diluted - 3:23
13 - Only One - 2:26
14 - Scissors - 8:24
15 - Eeyore - 2:49
16 - Me Inside - 2:41
17 - Get This - 2:04
18 - Spit It Out (Hyper Version) - 2:25
19 - Spit It Out (Stamp You Out Mix) - 2:38
20 - (Sic) (Molt-Injected Mix) - 3:27
21 - Wait And Bleed (Terry Date Mix) - 2:31
22 - Wait And Bleed (Demo) - 2:34
23 - Snap (Demo) - 2:42
24 - Interloper (Demo) - 2:19
25 - Despise (Demo) - 3:41

EAC-Log, CUE-Sheed & NFO:

Click to open spoiler
Exact Audio Copy V1.0 beta 3 from 29. August 2011

Отчёт EAC об извлечении, выполненном 17. октября 2014, 20:17

Slipknot / Slipknot (10th Anniversary Edition)

Дисковод: ASUS BW-12B1ST Adapter: 3 ID: 0

Режим чтения : Достоверность
Использование точного потока : Да
Отключение кэша аудио : Да
Использование указателей C2 : Нет

Коррекция смещения при чтении : 6
Способность читать области Lead-in и Lead-out : Нет
Заполнение пропущенных сэмплов тишиной : Да
Удаление блоков с тишиной в начале и конце : Нет
При вычислениях CRC использовались нулевые сэмплы : Да
Интерфейс : Встроенный Win32-интерфейс для Win NT/2000

Выходной формат : Внутренние WAV-операции
Формат сэмплов : 44.100 Гц; 16 бит; стерео

TOC извлечённого CD

Трек | Старт | Длительность | Начальный сектор | Конечный сектор
———————————————————————
1 | 0:00.00 | 0:36.04 | 0 | 2703
2 | 0:36.04 | 3:19.70 | 2704 | 17698
3 | 3:55.74 | 3:56.16 | 17699 | 35414
4 | 7:52.15 | 2:27.68 | 35415 | 46507
5 | 10:20.08 | 3:38.05 | 46508 | 62862
6 | 13:58.13 | 2:39.51 | 62863 | 74838
7 | 16:37.64 | 2:54.07 | 74839 | 87895
8 | 19:31.71 | 4:25.34 | 87896 | 107804
9 | 23:57.30 | 3:06.50 | 107805 | 121804
10 | 27:04.05 | 4:58.11 | 121805 | 144165
11 | 32:02.16 | 2:47.28 | 144166 | 156718
12 | 34:49.44 | 3:23.12 | 156719 | 171955
13 | 38:12.56 | 2:26.35 | 171956 | 182940
14 | 40:39.16 | 8:23.38 | 182941 | 220703
15 | 49:02.54 | 2:49.08 | 220704 | 233386
16 | 51:51.62 | 2:40.74 | 233387 | 245460
17 | 54:32.61 | 2:03.73 | 245461 | 254758
18 | 56:36.59 | 2:24.62 | 254759 | 265620
19 | 59:01.46 | 2:38.01 | 265621 | 277471
20 | 61:39.47 | 3:27.23 | 277472 | 293019
21 | 65:06.70 | 2:31.22 | 293020 | 304366
22 | 67:38.17 | 2:34.21 | 304367 | 315937
23 | 70:12.38 | 2:42.06 | 315938 | 328093
24 | 72:54.44 | 2:18.60 | 328094 | 338503
25 | 75:13.29 | 3:41.31 | 338504 | 355109

Характеристики диапазона извлечения и сообщения об ошибках

Выбранный диапазон

Имя файла D:\EAC\Slipknot – 1999 – Slipknot (10th Anniversary Edition) (Roadrunner Records – RRCY-29191-2)\Slipknot – 1999 – Slipknot (10th Anniversary Edition).wav

Пиковый уровень 100.0 %
Скорость извлечения 8.6 X
Качество диапазона 100.0 %
CRC теста 25C0B266
CRC копии 25C0B266
Копирование… OK

Ошибок не произошло

AccurateRip: сводка

Трек 1 : извлечено точно (доверие 25) [BC4A0A5B] (AR v2)
Трек 2 : извлечено точно (доверие 25) [CA50A637] (AR v2)
Трек 3 : извлечено точно (доверие 25) [0BD21E99] (AR v2)
Трек 4 : извлечено точно (доверие 25) [C94FCD4A] (AR v2)
Трек 5 : извлечено точно (доверие 25) [4F03F38A] (AR v2)
Трек 6 : извлечено точно (доверие 25) [FB57B7A8] (AR v2)
Трек 7 : извлечено точно (доверие 25) [149737EA] (AR v2)
Трек 8 : извлечено точно (доверие 25) [D5AAD070] (AR v2)
Трек 9 : извлечено точно (доверие 25) [889BF314] (AR v2)
Трек 10 : извлечено точно (доверие 25) [3ED60C04] (AR v2)
Трек 11 : извлечено точно (доверие 25) [997A474D] (AR v2)
Трек 12 : извлечено точно (доверие 25) [C83C829D] (AR v2)
Трек 13 : извлечено точно (доверие 25) [B68B2BC9] (AR v2)
Трек 14 : извлечено точно (доверие 26) [3478D4FB] (AR v2)
Трек 15 : извлечено точно (доверие 25) [9B9754C3] (AR v2)
Трек 16 : извлечено точно (доверие 25) [C0A363DB] (AR v2)
Трек 17 : извлечено точно (доверие 25) [C39E79A1] (AR v2)
Трек 18 : извлечено точно (доверие 24) [C6190ACC] (AR v2)
Трек 19 : извлечено точно (доверие 24) [AFDE4282] (AR v2)
Трек 20 : извлечено точно (доверие 24) [A5D4227F] (AR v2)
Трек 21 : извлечено точно (доверие 24) [02F523B5] (AR v2)
Трек 22 : извлечено точно (доверие 24) [4B8380B7] (AR v2)
Трек 23 : извлечено точно (доверие 24) [892DBC10] (AR v2)
Трек 24 : извлечено точно (доверие 24) [DAD3E3BD] (AR v2)
Трек 25 : извлечено точно (доверие 24) [428BCFE5] (AR v2)

Все треки извлечены точно

Конец отчёта

==== Контрольная сумма отчёта 4CED4BAA6090F05DEC23F92C2C6D17FF0A7BCAAADDF9FF49ADA556C3A2AFC1C3 ====

REM GENRE Metal
REM DATE 1999
REM DISCID 66127E19
REM COMMENT “ExactAudioCopy v1.0b3”
PERFORMER “Slipknot”
TITLE “Slipknot (10th Anniversary Edition)”
FILE “Slipknot – 1999 – Slipknot (10th Anniversary Edition).flac” WAVE
TRACK 01 AUDIO
TITLE “742617000027”
PERFORMER “Slipknot”
ISRC NLA329980191
INDEX 01 00:00:00
TRACK 02 AUDIO
TITLE “(sic)”
PERFORMER “Slipknot”
ISRC NLA329980192
INDEX 01 00:36:04
TRACK 03 AUDIO
TITLE “Eyeless”
PERFORMER “Slipknot”
ISRC NLA329980193
INDEX 01 03:55:74
TRACK 04 AUDIO
TITLE “Wait And Bleed”
PERFORMER “Slipknot”
ISRC NLA329980194
INDEX 01 07:52:15
TRACK 05 AUDIO
TITLE “Surfacing”
PERFORMER “Slipknot”
ISRC NLA329980195
INDEX 01 10:20:08
TRACK 06 AUDIO
TITLE “Spit It Out”
PERFORMER “Slipknot”
ISRC NLA329980196
INDEX 01 13:58:13
TRACK 07 AUDIO
TITLE “Tattered & Torn”
PERFORMER “Slipknot”
ISRC NLA329980197
INDEX 01 16:37:64
TRACK 08 AUDIO
TITLE “Purity”
PERFORMER “Slipknot”
ISRC NLA329980199
INDEX 01 19:31:71
TRACK 09 AUDIO
TITLE “Liberate”
PERFORMER “Slipknot”
ISRC NLA329980200
INDEX 01 23:57:30
TRACK 10 AUDIO
TITLE “Prosthetics”
PERFORMER “Slipknot”
ISRC NLA329980201
INDEX 01 27:04:05
TRACK 11 AUDIO
TITLE “No Life”
PERFORMER “Slipknot”
ISRC NLA329980202
INDEX 01 32:02:16
TRACK 12 AUDIO
TITLE “Diluted”
PERFORMER “Slipknot”
ISRC NLA329980203
INDEX 01 34:49:44
TRACK 13 AUDIO
TITLE “Only One”
PERFORMER “Slipknot”
ISRC NLA329980204
INDEX 01 38:12:56
TRACK 14 AUDIO
TITLE “Scissors”
PERFORMER “Slipknot”
ISRC NLA329980205
INDEX 01 40:39:16
TRACK 15 AUDIO
TITLE “Eeyore”
PERFORMER “Slipknot”
ISRC NLA320019203
INDEX 01 49:02:54
TRACK 16 AUDIO
TITLE “Me Inside”
PERFORMER “Slipknot”
ISRC NLA329980207
INDEX 01 51:51:62
TRACK 17 AUDIO
TITLE “Get This”
PERFORMER “Slipknot”
ISRC NLA329980208
INDEX 00 54:31:45
INDEX 01 54:32:61
TRACK 18 AUDIO
TITLE “Spit It Out (Hyper Version)”
PERFORMER “Slipknot”
ISRC NLA320018974
INDEX 01 56:36:59
TRACK 19 AUDIO
TITLE “Spit It Out (Stamp You Out Mix)”
PERFORMER “Slipknot”
ISRC NLA320320019
INDEX 01 59:01:46
TRACK 20 AUDIO
TITLE “(sic) (Molt-Injected Mix)”
PERFORMER “Slipknot”
ISRC NLA320018975
INDEX 01 61:39:47
TRACK 21 AUDIO
TITLE “Wait And Bleed (Terry Date Mix)”
PERFORMER “Slipknot”
ISRC NLA329980440
INDEX 01 65:06:70
TRACK 22 AUDIO
TITLE “Wait And Bleed (demo)”
PERFORMER “Slipknot”
ISRC NLA320989162
INDEX 01 67:38:17
TRACK 23 AUDIO
TITLE “Snap (demo)”
PERFORMER “Slipknot”
ISRC NLA320320267
INDEX 01 70:12:38
TRACK 24 AUDIO
TITLE “Interloper (demo)”
PERFORMER “Slipknot”
ISRC NLA329980284
INDEX 01 72:54:44
TRACK 25 AUDIO
TITLE “Despise (demo)”
PERFORMER “Slipknot”
ISRC NLA329980285
INDEX 01 75:13:29


Spread the Download

Leave a Reply

Your email address will not be published. Required fields are marked *

Enter the text from the image below
 

This site uses Akismet to reduce spam. Learn how your comment data is processed.