Slipknot – Iowa (10th Anniversary Japanese Edition)




[Total: 0    Average: 0/5]

Artist: Slipknot
Year: 2001/2011
Genre: Metal
Notes: Discogs
Add. Notes:
Cover incl.: No
Encoder: FLAC
Bitrate: ~1000 kBit/s (44.1 kHz/16 Bit/s)
Log & Cue incl.: Yes
Size: 1061,94 MB
Password: “slam” (without ” “)


All Downloads/Hosters are compatible

Download 1
Share-online.biz
KatFile.com
Rapidgator.net
ddl.to
Download 2
Share-online.biz
KatFile.com
Rapidgator.net
ddl.to

Tracklist:

Iowa
CD1-1 - (515) - 0:59
CD1-2 - People = Shit - 3:35
CD1-3 - Disasterpiece - 5:08
CD1-4 - My Plague - 3:40
CD1-5 - Everything Ends - 4:14
CD1-6 - The Heretic Anthem - 4:13
CD1-7 - Gently - 4:54
CD1-8 - Left Behind - 4:01
CD1-9 - The Shape - 3:37
CD1-10 - I Am Hated - 2:37
CD1-11 - Skin Ticket - 6:41
CD1-12 - New Abortion - 3:36
CD1-13 - Metabolic - 3:59
CD1-14 - Iowa - 15:04
CD1-15 - My Plague (New Abuse Mix) - 3:02

Disasterpieces (Live At London Arena, 2002)
CD2-1 - (515) - 4:04
CD2-2 - People = Shit - 3:36
CD2-3 - Liberate - 3:37
CD2-4 - Left Behind - 3:38
CD2-5 - Eeyore - 2:38
CD2-6 - Disasterpiece - 5:22
CD2-7 - Purity - 5:26
CD2-8 - Gently - 4:35
CD2-9 - Eyeless - 4:57
CD2-10 - Drum Solo - 3:59
CD2-11 - My Plague - 3:47
CD2-12 - New Abortion - 4:22
CD2-13 - The Heretic Anthem - 4:59
CD2-14 - Spit It Out - 7:44
CD2-15 - Wait And Bleed - 3:27
CD2-16 - 742617000027 - 1:44
CD2-17 - (Sic) - 4:21
CD2-18 - Surfacing - 5:34

EAC-Log, CUE-Sheed & NFO:

Click to open spoiler
Exact Audio Copy V1.0 beta 3 from 29. August 2011

Отчёт EAC об извлечении, выполненном 17. октября 2014, 21:00

Slipknot / Iowa (10th Anniversary Edition)

Дисковод: ASUS BW-12B1ST Adapter: 3 ID: 0

Режим чтения : Достоверность
Использование точного потока : Да
Отключение кэша аудио : Да
Использование указателей C2 : Нет

Коррекция смещения при чтении : 6
Способность читать области Lead-in и Lead-out : Нет
Заполнение пропущенных сэмплов тишиной : Да
Удаление блоков с тишиной в начале и конце : Нет
При вычислениях CRC использовались нулевые сэмплы : Да
Интерфейс : Встроенный Win32-интерфейс для Win NT/2000

Выходной формат : Внутренние WAV-операции
Формат сэмплов : 44.100 Гц; 16 бит; стерео

TOC извлечённого CD

Трек | Старт | Длительность | Начальный сектор | Конечный сектор
———————————————————————
1 | 0:00.00 | 0:59.67 | 0 | 4491
2 | 0:59.67 | 3:35.45 | 4492 | 20661
3 | 4:35.37 | 5:08.23 | 20662 | 43784
4 | 9:43.60 | 3:40.17 | 43785 | 60301
5 | 13:24.02 | 4:14.02 | 60302 | 79353
6 | 17:38.04 | 4:13.72 | 79354 | 98400
7 | 21:52.01 | 4:54.00 | 98401 | 120450
8 | 26:46.01 | 4:01.30 | 120451 | 138555
9 | 30:47.31 | 3:37.55 | 138556 | 154885
10 | 34:25.11 | 2:37.62 | 154886 | 166722
11 | 37:02.73 | 6:41.15 | 166723 | 196812
12 | 43:44.13 | 3:36.45 | 196813 | 213057
13 | 47:20.58 | 3:59.08 | 213058 | 230990
14 | 51:19.66 | 15:04.46 | 230991 | 298836
15 | 66:24.37 | 3:02.70 | 298837 | 312556

Характеристики диапазона извлечения и сообщения об ошибках

Выбранный диапазон

Имя файла D:\EAC\Slipknot – 2001 – Iowa (10th Anniversary Edition 2011) (Roadrunner Records – WPZR-30403-5)\CD 1 Iowa [10th Anniversary Edition]\Slipknot – 2001 – Iowa (10th Anniversary Edition).wav

Пиковый уровень 100.0 %
Скорость извлечения 3.7 X
Качество диапазона 100.0 %
CRC теста A86CCDFD
CRC копии A86CCDFD
Копирование… OK

Ошибок не произошло

AccurateRip: сводка

Трек 1 : извлечено точно (доверие 3) [AFCA78EC] (AR v2)
Трек 2 : извлечено точно (доверие 3) [52711F0E] (AR v2)
Трек 3 : извлечено точно (доверие 3) [ED413DF6] (AR v2)
Трек 4 : извлечено точно (доверие 3) [377F3C3C] (AR v2)
Трек 5 : извлечено точно (доверие 3) [7EBDF340] (AR v2)
Трек 6 : извлечено точно (доверие 3) [6843D54A] (AR v2)
Трек 7 : извлечено точно (доверие 3) [8D0B0AA6] (AR v2)
Трек 8 : извлечено точно (доверие 3) [98F154B7] (AR v2)
Трек 9 : извлечено точно (доверие 3) [75D45B19] (AR v2)
Трек 10 : извлечено точно (доверие 3) [06AAD2EE] (AR v2)
Трек 11 : извлечено точно (доверие 3) [AE0B3FA1] (AR v2)
Трек 12 : извлечено точно (доверие 3) [6BA5A22F] (AR v2)
Трек 13 : извлечено точно (доверие 3) [83228C2E] (AR v2)
Трек 14 : извлечено точно (доверие 3) [D5BA6E9D] (AR v2)
Трек 15 : извлечено точно (доверие 3) [7C90948B] (AR v2)

Все треки извлечены точно

Конец отчёта

==== Контрольная сумма отчёта 03E3E054B2EBB65F9EB06F36A3F0FDE50CD14C42C3C52EE675D399F528C89F09 ====

Exact Audio Copy V1.0 beta 3 from 29. August 2011

Отчёт EAC об извлечении, выполненном 17. октября 2014, 21:45

Slipknot / Iowa (10th Anniversary Edition)

Дисковод: ASUS BW-12B1ST Adapter: 3 ID: 0

Режим чтения : Достоверность
Использование точного потока : Да
Отключение кэша аудио : Да
Использование указателей C2 : Нет

Коррекция смещения при чтении : 6
Способность читать области Lead-in и Lead-out : Нет
Заполнение пропущенных сэмплов тишиной : Да
Удаление блоков с тишиной в начале и конце : Нет
При вычислениях CRC использовались нулевые сэмплы : Да
Интерфейс : Встроенный Win32-интерфейс для Win NT/2000

Выходной формат : Внутренние WAV-операции
Формат сэмплов : 44.100 Гц; 16 бит; стерео

TOC извлечённого CD

Трек | Старт | Длительность | Начальный сектор | Конечный сектор
———————————————————————
1 | 0:00.00 | 4:04.62 | 0 | 18361
2 | 4:04.62 | 3:36.31 | 18362 | 34592
3 | 7:41.18 | 3:37.73 | 34593 | 50940
4 | 11:19.16 | 3:38.73 | 50941 | 67363
5 | 14:58.14 | 2:38.32 | 67364 | 79245
6 | 17:36.46 | 5:22.56 | 79246 | 103451
7 | 22:59.27 | 5:26.53 | 103452 | 127954
8 | 28:26.05 | 4:35.74 | 127955 | 148653
9 | 33:02.04 | 4:57.43 | 148654 | 170971
10 | 37:59.47 | 3:59.00 | 170972 | 188896
11 | 41:58.47 | 3:47.03 | 188897 | 205924
12 | 45:45.50 | 4:22.70 | 205925 | 225644
13 | 50:08.45 | 4:59.14 | 225645 | 248083
14 | 55:07.59 | 7:44.24 | 248084 | 282907
15 | 62:52.08 | 3:27.43 | 282908 | 298475
16 | 66:19.51 | 1:44.41 | 298476 | 306316
17 | 68:04.17 | 4:21.72 | 306317 | 325963
18 | 72:26.14 | 5:34.27 | 325964 | 351040

Характеристики диапазона извлечения и сообщения об ошибках

Выбранный диапазон

Имя файла D:\EAC\Slipknot – 2001 – Iowa (10th Anniversary Edition 2011) (Roadrunner Records – WPZR-30403-5)\CD 2 Disasterpiece (Live At London Arena, 2002)\Slipknot – 2011 – Iowa (10th Anniversary Edition).wav

Пиковый уровень 100.0 %
Скорость извлечения 3.9 X
Качество диапазона 99.9 %
CRC теста B5C7789E
CRC копии B5C7789E
Копирование… OK

Ошибок не произошло

AccurateRip: сводка

Трек 1 : извлечено точно (доверие 12) [49173485] (AR v2)
Трек 2 : извлечено точно (доверие 12) [B0C0F395] (AR v2)
Трек 3 : извлечено точно (доверие 12) [B9C33B31] (AR v2)
Трек 4 : извлечено точно (доверие 12) [BDC007EE] (AR v2)
Трек 5 : извлечено точно (доверие 12) [A628C267] (AR v2)
Трек 6 : извлечено точно (доверие 12) [93DAD5C2] (AR v2)
Трек 7 : извлечено точно (доверие 12) [37079929] (AR v2)
Трек 8 : извлечено точно (доверие 12) [1BA9B15C] (AR v2)
Трек 9 : извлечено точно (доверие 12) [3CF10902] (AR v2)
Трек 10 : извлечено точно (доверие 12) [56FAE5BA] (AR v2)
Трек 11 : извлечено точно (доверие 12) [35279115] (AR v2)
Трек 12 : извлечено точно (доверие 12) [CFE3D5D9] (AR v2)
Трек 13 : извлечено точно (доверие 12) [ADC4F478] (AR v2)
Трек 14 : извлечено точно (доверие 12) [26D18CC4] (AR v2)
Трек 15 : извлечено точно (доверие 11) [08914DE9] (AR v2)
Трек 16 : извлечено точно (доверие 12) [BC3E0F75] (AR v2)
Трек 17 : извлечено точно (доверие 12) [DF4316C3] (AR v2)
Трек 18 : извлечено точно (доверие 12) [DB319B05] (AR v2)

Все треки извлечены точно

Конец отчёта

==== Контрольная сумма отчёта C9CC5890715DA9D7D6EE68F1F2EAAC4E6045AA00FCC0A8CE03FB445F338E77CC ====

REM GENRE Metal
REM DATE 2001
REM DISCID CD10470F
REM COMMENT “ExactAudioCopy v1.0b3”
CATALOG 4943674109135
PERFORMER “Slipknot”
TITLE “Iowa (10th Anniversary Edition)”
FILE “Slipknot – 2001 – Iowa (10th Anniversary Edition).flac” WAVE
TRACK 01 AUDIO
TITLE “(515)”
PERFORMER “Slipknot”
ISRC NLA320119554
INDEX 01 00:00:00
TRACK 02 AUDIO
TITLE “People = Shit”
PERFORMER “Slipknot”
ISRC NLA320119546
INDEX 01 00:59:67
TRACK 03 AUDIO
TITLE “Disasterpiece”
PERFORMER “Slipknot”
ISRC NLA320119555
INDEX 01 04:35:37
TRACK 04 AUDIO
TITLE “My Plague”
PERFORMER “Slipknot”
ISRC NLA320119556
INDEX 01 09:43:60
TRACK 05 AUDIO
TITLE “Everything Ends”
PERFORMER “Slipknot”
ISRC NLA320119558
INDEX 01 13:24:02
TRACK 06 AUDIO
TITLE “The Heretic Anthem”
PERFORMER “Slipknot”
ISRC NLA320119545
INDEX 01 17:38:04
TRACK 07 AUDIO
TITLE “Gently”
PERFORMER “Slipknot”
ISRC NLA320119557
INDEX 01 21:52:01
TRACK 08 AUDIO
TITLE “Left Behind”
PERFORMER “Slipknot”
ISRC NLA320119537
INDEX 01 26:46:01
TRACK 09 AUDIO
TITLE “The Shape”
PERFORMER “Slipknot”
ISRC NLA320119559
INDEX 01 30:47:31
TRACK 10 AUDIO
TITLE “I Am Hated”
PERFORMER “Slipknot”
ISRC NLA320119564
INDEX 01 34:25:11
TRACK 11 AUDIO
TITLE “Skin Ticket”
PERFORMER “Slipknot”
ISRC NLA320119560
INDEX 01 37:02:73
TRACK 12 AUDIO
TITLE “New Abortion”
PERFORMER “Slipknot”
ISRC NLA320119561
INDEX 01 43:44:13
TRACK 13 AUDIO
TITLE “Metabolic”
PERFORMER “Slipknot”
ISRC NLA320119562
INDEX 01 47:20:58
TRACK 14 AUDIO
TITLE “Iowa”
PERFORMER “Slipknot”
ISRC NLA320119563
INDEX 01 51:19:66
TRACK 15 AUDIO
TITLE “My Plague (New Abuse Mix)”
PERFORMER “Slipknot”
ISRC NLA320219712
INDEX 00 66:23:05
INDEX 01 66:24:37

REM GENRE Metal
REM DATE 2011
REM DISCID 01124812
REM COMMENT “ExactAudioCopy v1.0b3”
CATALOG 4943674109135
PERFORMER “Slipknot”
TITLE “Iowa (10th Anniversary Edition)”
FILE “Slipknot – 2011 – Iowa (10th Anniversary Edition).flac” WAVE
TRACK 01 AUDIO
TITLE “(515)”
PERFORMER “Slipknot”
ISRC NLA321191258
INDEX 01 00:00:00
TRACK 02 AUDIO
TITLE “People = Shit”
PERFORMER “Slipknot”
ISRC NLA321191259
INDEX 01 04:04:62
TRACK 03 AUDIO
TITLE “Liberate”
PERFORMER “Slipknot”
ISRC NLA321191260
INDEX 01 07:41:18
TRACK 04 AUDIO
TITLE “Left Behind”
PERFORMER “Slipknot”
ISRC NLA321191261
INDEX 01 11:19:16
TRACK 05 AUDIO
TITLE “Eeyore”
PERFORMER “Slipknot”
ISRC NLA321191262
INDEX 01 14:58:14
TRACK 06 AUDIO
TITLE “Disasterpiece”
PERFORMER “Slipknot”
ISRC NLA321191263
INDEX 01 17:36:46
TRACK 07 AUDIO
TITLE “Purity”
PERFORMER “Slipknot”
ISRC NLA321191264
INDEX 01 22:59:27
TRACK 08 AUDIO
TITLE “Gently”
PERFORMER “Slipknot”
ISRC NLA321191265
INDEX 01 28:26:05
TRACK 09 AUDIO
TITLE “Eyeless”
PERFORMER “Slipknot”
ISRC NLA321191266
INDEX 01 33:02:04
TRACK 10 AUDIO
TITLE “Drum Solo”
PERFORMER “Slipknot”
ISRC NLA321191267
INDEX 01 37:59:47
TRACK 11 AUDIO
TITLE “My Plague”
PERFORMER “Slipknot”
ISRC NLA321191268
INDEX 01 41:58:47
TRACK 12 AUDIO
TITLE “New Abortion”
PERFORMER “Slipknot”
ISRC NLA321191269
INDEX 01 45:45:50
TRACK 13 AUDIO
TITLE “The Heretic Anthem”
PERFORMER “Slipknot”
ISRC NLA321191270
INDEX 01 50:08:45
TRACK 14 AUDIO
TITLE “Spit It Out”
PERFORMER “Slipknot”
ISRC NLA321191271
INDEX 01 55:07:59
TRACK 15 AUDIO
TITLE “Wait And Bleed”
PERFORMER “Slipknot”
ISRC NLA321191272
INDEX 01 62:52:08
TRACK 16 AUDIO
TITLE “742617000027”
PERFORMER “Slipknot”
ISRC NLA321191274
INDEX 01 66:19:51
TRACK 17 AUDIO
TITLE “(Sic)”
PERFORMER “Slipknot”
ISRC NLA321191275
INDEX 01 68:04:17
TRACK 18 AUDIO
TITLE “Surfacing”
PERFORMER “Slipknot”
ISRC NLA321191273
INDEX 01 72:26:14


Spread the Download

Leave a Reply

Your email address will not be published. Required fields are marked *

Enter the text from the image below
 

This site uses Akismet to reduce spam. Learn how your comment data is processed.