Slipknot – Day Of The Gusano (Limited Japanese Edition)




Artist: Slipknot
Year: 2017
Genre: Metal
Notes: Discogs
Add. Notes: Limited Japanese Edition
Cover incl.: Yes
Encoder: FLAC
Bitrate: ~1000 kBit/s (44.1 kHz/16 Bit/s)
Log & Cue incl.: Yes
Size: 579 MB
Password: “slam” (without ” “)


All Downloads/Hosters are compatible

Download 1
KatFile.com
Rapidgator.net
Turbobit.net
FileFactory.com
Download 2
KatFile.com
Rapidgator.net
Turbobit.net
FileFactory.com

Tracklist:

1 - Sarcastrophe - 4:51
2 - The Heretic Anthem - 3:58
3 - Psychosicial - 4:36
4 - The Devil In I - 6:24
5 - Me Inside - 3:09
6 - Vermilion - 5:22
7 - Wait And Bleed - 2:45
8 - Prosthetics - 6:14
9 - Before I Forget - 4:27
10 - Eeyore - 3:06
11 - Duality - 4:14
12 - Custer - 4:37
13 - Spit It Out - 6:52
14 - Metabolic / 742617000027 - 
4:45
15 - (Sic) - 4:11
16 - People = Shit - 5:21
17 - Surfacing / Til We Die - 5:04

EAC-Log, CUE-Sheed & NFO:

Click to open spoiler
Exact Audio Copy V1.3 from 2. September 2016

Отчёт EAC об извлечении, выполненном 4. ноября 2017, 19:02

Slipknot / Day of the Gusano: Live in Mexico

Дисковод: ASUS BW-12B1ST Adapter: 1 ID: 0

Режим чтения : Достоверность
Использование точного потока : Да
Отключение кэша аудио : Да
Использование указателей C2 : Нет

Коррекция смещения при чтении : 6
Способность читать области Lead-in и Lead-out : Нет
Заполнение пропущенных сэмплов тишиной : Да
Удаление блоков с тишиной в начале и конце : Нет
При вычислениях CRC использовались нулевые сэмплы : Да
Интерфейс : Встроенный Win32-интерфейс для Win NT/2000

Выходной формат : Внутренние WAV-операции
Формат сэмплов : 44.100 Гц; 16 бит; стерео

TOC извлечённого CD

Трек | Старт | Длительность | Начальный сектор | Конечный сектор
———————————————————————
1 | 0:00.00 | 4:50.56 | 0 | 21805
2 | 4:50.56 | 3:57.51 | 21806 | 39631
3 | 8:48.32 | 4:36.07 | 39632 | 60338
4 | 13:24.39 | 6:24.17 | 60339 | 89155
5 | 19:48.56 | 3:08.54 | 89156 | 103309
6 | 22:57.35 | 5:22.23 | 103310 | 127482
7 | 28:19.58 | 2:44.51 | 127483 | 139833
8 | 31:04.34 | 6:13.73 | 139834 | 167881
9 | 37:18.32 | 4:26.59 | 167882 | 187890
10 | 41:45.16 | 3:06.05 | 187891 | 201845
11 | 44:51.21 | 4:14.02 | 201846 | 220897
12 | 49:05.23 | 4:37.00 | 220898 | 241672
13 | 53:42.23 | 6:51.70 | 241673 | 272567
14 | 60:34.18 | 4:45.06 | 272568 | 293948
15 | 65:19.24 | 4:11.15 | 293949 | 312788
16 | 69:30.39 | 5:20.56 | 312789 | 336844
17 | 74:51.20 | 5:03.45 | 336845 | 359614

Характеристики диапазона извлечения и сообщения об ошибках

Выбранный диапазон

Имя файла D:\EAC\Evgenius1986\Slipknot – 2017 – Day of the Gusano Live in Mexico (Eagle Vision, Universal Music Group – GQXS-90291-3)\Slipknot – 2017 – Day of the Gusano Live in Mexico.wav

Пиковый уровень 100.0 %
Скорость извлечения 8.3 X
Качество диапазона 100.0 %
CRC теста E83B7898
CRC копии E83B7898
Копирование… OK

Ошибок не произошло

AccurateRip: сводка

Трек 1 отсутствует в базе данных
Трек 2 отсутствует в базе данных
Трек 3 отсутствует в базе данных
Трек 4 отсутствует в базе данных
Трек 5 отсутствует в базе данных
Трек 6 отсутствует в базе данных
Трек 7 отсутствует в базе данных
Трек 8 отсутствует в базе данных
Трек 9 отсутствует в базе данных
Трек 10 отсутствует в базе данных
Трек 11 отсутствует в базе данных
Трек 12 отсутствует в базе данных
Трек 13 отсутствует в базе данных
Трек 14 отсутствует в базе данных
Трек 15 отсутствует в базе данных
Трек 16 отсутствует в базе данных
Трек 17 отсутствует в базе данных

Ни одного трека нет в базе AccurateRip

Конец отчёта

—- CUETools DB Plugin V2.1.6

[CTDB TOCID: TG.Xz.JX19ufZUyAVuCqI74iqyI-] found
Submit result: already submitted
Track | CTDB Status
1 | (8/8) Accurately ripped
2 | (8/8) Accurately ripped
3 | (8/8) Accurately ripped
4 | (8/8) Accurately ripped
5 | (8/8) Accurately ripped
6 | (8/8) Accurately ripped
7 | (8/8) Accurately ripped
8 | (8/8) Accurately ripped
9 | (8/8) Accurately ripped
10 | (8/8) Accurately ripped
11 | (8/8) Accurately ripped
12 | (8/8) Accurately ripped
13 | (8/8) Accurately ripped
14 | (8/8) Accurately ripped
15 | (8/8) Accurately ripped
16 | (8/8) Accurately ripped
17 | (8/8) Accurately ripped

==== Контрольная сумма отчёта F92DB3A5AF71275E6338AC3954B4298D4250055F658EEDEF390A1D149B4E4555 ====

REM GENRE Metal
REM DATE 2017
REM DISCID F012BA11
REM COMMENT “ExactAudioCopy v1.3”
CATALOG 5034504950948
PERFORMER “Slipknot”
TITLE “Day of the Gusano: Live in Mexico”
REM COMPOSER “”
FILE “Slipknot – 2017 – Day of the Gusano Live in Mexico.flac” WAVE
TRACK 01 AUDIO
TITLE “Sarcastrophe”
PERFORMER “Slipknot”
REM COMPOSER “”
ISRC GBCBR1700089
INDEX 01 00:00:00
TRACK 02 AUDIO
TITLE “The Heretic Anthem”
PERFORMER “Slipknot”
REM COMPOSER “”
ISRC GBCBR1700090
INDEX 01 04:50:56
TRACK 03 AUDIO
TITLE “Psychosocial”
PERFORMER “Slipknot”
REM COMPOSER “”
ISRC GBCBR1700091
INDEX 01 08:48:32
TRACK 04 AUDIO
TITLE “The Devil in I”
PERFORMER “Slipknot”
REM COMPOSER “”
ISRC GBCBR1700092
INDEX 01 13:24:39
TRACK 05 AUDIO
TITLE “Me Inside”
PERFORMER “Slipknot”
REM COMPOSER “”
ISRC GBCBR1700093
INDEX 01 19:48:56
TRACK 06 AUDIO
TITLE “Vermilion”
PERFORMER “Slipknot”
REM COMPOSER “”
ISRC GBCBR1700094
INDEX 01 22:57:35
TRACK 07 AUDIO
TITLE “Wait and Bleed”
PERFORMER “Slipknot”
REM COMPOSER “”
ISRC GBCBR1700095
INDEX 01 28:19:58
TRACK 08 AUDIO
TITLE “Prosthetics”
PERFORMER “Slipknot”
REM COMPOSER “”
ISRC GBCBR1700096
INDEX 01 31:04:34
TRACK 09 AUDIO
TITLE “Before I Forget”
PERFORMER “Slipknot”
REM COMPOSER “”
ISRC GBCBR1700097
INDEX 01 37:18:32
TRACK 10 AUDIO
TITLE “Eeyore”
PERFORMER “Slipknot”
REM COMPOSER “”
ISRC GBCBR1700098
INDEX 01 41:45:16
TRACK 11 AUDIO
TITLE “Duality”
PERFORMER “Slipknot”
REM COMPOSER “”
ISRC GBCBR1700099
INDEX 01 44:51:21
TRACK 12 AUDIO
TITLE “Custer”
PERFORMER “Slipknot”
REM COMPOSER “”
ISRC GBCBR1700100
INDEX 01 49:05:23
TRACK 13 AUDIO
TITLE “Spit It Out”
PERFORMER “Slipknot”
REM COMPOSER “”
ISRC GBCBR1700101
INDEX 01 53:42:23
TRACK 14 AUDIO
TITLE “Metabolic / 742617000027”
PERFORMER “Slipknot”
REM COMPOSER “”
ISRC GBCBR1700102
INDEX 01 60:34:18
TRACK 15 AUDIO
TITLE “(sic)”
PERFORMER “Slipknot”
REM COMPOSER “”
ISRC GBCBR1700103
INDEX 01 65:19:24
TRACK 16 AUDIO
TITLE “People = Shit”
PERFORMER “Slipknot”
REM COMPOSER “”
ISRC GBCBR1700104
INDEX 01 69:30:39
TRACK 17 AUDIO
TITLE “Surfacing / Til We Die”
PERFORMER “Slipknot”
REM COMPOSER “”
ISRC GBCBR1700105
INDEX 01 74:51:20


Leave a Reply

Your email address will not be published. Required fields are marked *

Enter the text from the image below
 

This site uses Akismet to reduce spam. Learn how your comment data is processed.