Slipknot – Antennas to Hell (Japanese Deluxe Edition)




[Total: 0    Average: 0/5]

Artist: Slipknot
Year:
Genre: Metal
Notes: Discogs
Add. Notes: Japanese Deluxe Edition
Cover incl.: Yes
Encoder: FLAC
Bitrate: ~1000 kBit/s (44.1 kHz/16 Bit/s)
Log & Cue incl.: Yes
Size: 1141,53 MB
Password: “slam” (without ” “)


All Downloads/Hosters are compatible

Download 1
Share-online.biz
KatFile.com
Rapidgator.net
NitroFlare.com
Download 2
Share-online.biz
KatFile.com
Rapidgator.net
NitroFlare.com

Tracklist:

CD1
1. (Sic)
2. Eyeless
3. Wait And Bleed
4. Spit It Out
5. Surfacing
6. People = Shit
7. Disasterpiece
8. Left Behind
9. My Plague (New Abuse Mix)
10. The Heretic Anthem (Live)
11. Purity (Live)
12. Pulse Of The Maggots
13. Duality
14. Before I Forget
15. Vermilion
16. Sulfur
17. Psychosocial
18. Dead Memories
19. Snuff
	
Bonus CD: (Sic)nesses Live At Download Festival 2009
CD2
1. (Sic)
2. Eyeless
3. Wait And Bleed
4. Get This
5. Before I Forget
6. Sulfur
7. The Blister Exists
8. Dead Memories
9. Left Behind
10. Disasterpiece
11. Vermilion
12. Everything Ends
13. Psychosocial
14. Duality
15. People = Shit
16. Surfacing
17. Spit It Out

EAC-Log, CUE-Sheed & NFO:

Click to open spoiler
Exact Audio Copy V1.0 beta 3 from 29. August 2011

Отчёт EAC об извлечении, выполненном 18. октября 2014, 0:48

Slipknot / Antennas To Hell

Дисковод: ASUS BW-12B1ST Adapter: 3 ID: 0

Режим чтения : Достоверность
Использование точного потока : Да
Отключение кэша аудио : Да
Использование указателей C2 : Нет

Коррекция смещения при чтении : 6
Способность читать области Lead-in и Lead-out : Нет
Заполнение пропущенных сэмплов тишиной : Да
Удаление блоков с тишиной в начале и конце : Нет
При вычислениях CRC использовались нулевые сэмплы : Да
Интерфейс : Встроенный Win32-интерфейс для Win NT/2000

Выходной формат : Внутренние WAV-операции
Формат сэмплов : 44.100 Гц; 16 бит; стерео

TOC извлечённого CD

Трек | Старт | Длительность | Начальный сектор | Конечный сектор
———————————————————————
1 | 0:00.00 | 3:20.29 | 0 | 15028
2 | 3:20.29 | 3:56.26 | 15029 | 32754
3 | 7:16.55 | 2:28.37 | 32755 | 43891
4 | 9:45.17 | 2:40.41 | 43892 | 55932
5 | 12:25.58 | 3:38.54 | 55933 | 72336
6 | 16:04.37 | 3:35.43 | 72337 | 88504
7 | 19:40.05 | 5:08.72 | 88505 | 111676
8 | 24:49.02 | 4:02.42 | 111677 | 129868
9 | 28:51.44 | 3:03.00 | 129869 | 143593
10 | 31:54.44 | 4:04.47 | 143594 | 161940
11 | 35:59.16 | 4:35.27 | 161941 | 182592
12 | 40:34.43 | 4:24.43 | 182593 | 202435
13 | 44:59.11 | 4:14.64 | 202436 | 221549
14 | 49:14.00 | 4:24.28 | 221550 | 241377
15 | 53:38.28 | 5:25.07 | 241378 | 265759
16 | 59:03.35 | 4:37.60 | 265760 | 286594
17 | 63:41.20 | 4:43.58 | 286595 | 307877
18 | 68:25.03 | 4:28.52 | 307878 | 328029
19 | 72:53.55 | 4:40.03 | 328030 | 349032

Характеристики диапазона извлечения и сообщения об ошибках

Выбранный диапазон

Имя файла D:\EAC\Slipknot – 2012 – Antennas to Hell (Roadrunner Records – WPZR-30441-3)\CD 1\Slipknot – 2012 – Antennas To Hell.wav

Пиковый уровень 100.0 %
Скорость извлечения 4.0 X
Качество диапазона 100.0 %
CRC теста E5C0FC24
CRC копии E5C0FC24
Копирование… OK

Ошибок не произошло

AccurateRip: сводка

Трек 1 : извлечено точно (доверие 4) [32562A81] (AR v2)
Трек 2 : извлечено точно (доверие 4) [2288B4CE] (AR v2)
Трек 3 : извлечено точно (доверие 4) [8642D9FF] (AR v2)
Трек 4 : извлечено точно (доверие 4) [06101EAF] (AR v2)
Трек 5 : извлечено точно (доверие 4) [05F4CF27] (AR v2)
Трек 6 : извлечено точно (доверие 4) [B89982DC] (AR v2)
Трек 7 : извлечено точно (доверие 4) [3832C501] (AR v2)
Трек 8 : извлечено точно (доверие 4) [B250AF7D] (AR v2)
Трек 9 : извлечено точно (доверие 4) [05204278] (AR v2)
Трек 10 : извлечено точно (доверие 4) [C6C496A1] (AR v2)
Трек 11 : извлечено точно (доверие 4) [1FF19774] (AR v2)
Трек 12 : извлечено точно (доверие 4) [46B3C063] (AR v2)
Трек 13 : извлечено точно (доверие 4) [CDDDC877] (AR v2)
Трек 14 : извлечено точно (доверие 4) [4DE969A4] (AR v2)
Трек 15 : извлечено точно (доверие 4) [ACE9BA2D] (AR v2)
Трек 16 : извлечено точно (доверие 4) [7F512309] (AR v2)
Трек 17 : извлечено точно (доверие 4) [0299B3E4] (AR v2)
Трек 18 : извлечено точно (доверие 4) [DB58D806] (AR v2)
Трек 19 : извлечено точно (доверие 4) [614623EC] (AR v2)

Все треки извлечены точно

Конец отчёта

==== Контрольная сумма отчёта C5CD3D2B1C68B5A76C9BA84EC9DD1AEADD1794914537AA292C5AE44E938E8AAB ====

Exact Audio Copy V1.0 beta 3 from 29. August 2011

Отчёт EAC об извлечении, выполненном 18. октября 2014, 1:32

Slipknot / (Sic)nesses: Live At The Download Festival, 2009

Дисковод: ASUS BW-12B1ST Adapter: 3 ID: 0

Режим чтения : Достоверность
Использование точного потока : Да
Отключение кэша аудио : Да
Использование указателей C2 : Нет

Коррекция смещения при чтении : 6
Способность читать области Lead-in и Lead-out : Нет
Заполнение пропущенных сэмплов тишиной : Да
Удаление блоков с тишиной в начале и конце : Нет
При вычислениях CRC использовались нулевые сэмплы : Да
Интерфейс : Встроенный Win32-интерфейс для Win NT/2000

Выходной формат : Внутренние WAV-операции
Формат сэмплов : 44.100 Гц; 16 бит; стерео

TOC извлечённого CD

Трек | Старт | Длительность | Начальный сектор | Конечный сектор
———————————————————————
1 | 0:00.00 | 3:45.17 | 0 | 16891
2 | 3:45.17 | 4:11.33 | 16892 | 35749
3 | 7:56.50 | 2:46.21 | 35750 | 48220
4 | 10:42.71 | 4:05.28 | 48221 | 66623
5 | 14:48.24 | 4:22.57 | 66624 | 86330
6 | 19:11.06 | 4:17.23 | 86331 | 105628
7 | 23:28.29 | 5:25.27 | 105629 | 130030
8 | 28:53.56 | 4:04.28 | 130031 | 148358
9 | 32:58.09 | 3:22.70 | 148359 | 163578
10 | 36:21.04 | 5:00.26 | 163579 | 186104
11 | 41:21.30 | 6:16.20 | 186105 | 214324
12 | 47:37.50 | 4:42.32 | 214325 | 235506
13 | 52:20.07 | 5:07.31 | 235507 | 258562
14 | 57:27.38 | 4:46.03 | 258563 | 280015
15 | 62:13.41 | 5:44.53 | 280016 | 305868
16 | 67:58.19 | 4:20.61 | 305869 | 325429
17 | 72:19.05 | 7:10.67 | 325430 | 357746

Характеристики диапазона извлечения и сообщения об ошибках

Выбранный диапазон

Имя файла D:\EAC\Slipknot – 2012 – Antennas to Hell (Roadrunner Records – WPZR-30441-3)\CD 2 (Sic)nesses Live At The Download Festival, 2009\Slipknot – 2012 – (Sic)nesses Live At The Download Festival, 2009.wav

Пиковый уровень 97.7 %
Скорость извлечения 4.0 X
Качество диапазона 100.0 %
CRC теста A72C75EE
CRC копии A72C75EE
Копирование… OK

Ошибок не произошло

AccurateRip: сводка

Трек 1 : извлечено точно (доверие 23) [77F489AB] (AR v2)
Трек 2 : извлечено точно (доверие 23) [DD34B875] (AR v2)
Трек 3 : извлечено точно (доверие 24) [599E8EA2] (AR v2)
Трек 4 : извлечено точно (доверие 24) [31E1F2DE] (AR v2)
Трек 5 : извлечено точно (доверие 24) [FE4A1083] (AR v2)
Трек 6 : извлечено точно (доверие 24) [53C5BDF5] (AR v2)
Трек 7 : извлечено точно (доверие 24) [792A5714] (AR v2)
Трек 8 : извлечено точно (доверие 24) [3619635A] (AR v2)
Трек 9 : извлечено точно (доверие 24) [E9C53B30] (AR v2)
Трек 10 : извлечено точно (доверие 24) [FA757518] (AR v2)
Трек 11 : извлечено точно (доверие 24) [D063D0DA] (AR v2)
Трек 12 : извлечено точно (доверие 24) [CB9DBB32] (AR v2)
Трек 13 : извлечено точно (доверие 24) [AFBF4553] (AR v2)
Трек 14 : извлечено точно (доверие 24) [30A84FB0] (AR v2)
Трек 15 : извлечено точно (доверие 24) [6C5C57EE] (AR v2)
Трек 16 : извлечено точно (доверие 24) [981D2C8C] (AR v2)
Трек 17 : извлечено точно (доверие 24) [8A0E39B3] (AR v2)

Все треки извлечены точно

Конец отчёта

==== Контрольная сумма отчёта D5E60F185DA88FF952F2F1E76F0DDF604F96EEBAC4FBE7892150229DC94C8F44 ====

REM GENRE Rock
REM DATE 2012
REM DISCID 0B122D13
REM COMMENT “ExactAudioCopy v1.0b3”
CATALOG 4943674119585
PERFORMER “Slipknot”
TITLE “Antennas To Hell”
FILE “Slipknot – 2012 – Antennas To Hell.flac” WAVE
TRACK 01 AUDIO
TITLE “(SIC)”
PERFORMER “Slipknot”
ISRC NLA329980192
INDEX 01 00:00:00
TRACK 02 AUDIO
TITLE “Eyeless”
PERFORMER “Slipknot”
ISRC NLA329980193
INDEX 01 03:20:29
TRACK 03 AUDIO
TITLE “Wait And Bleed”
PERFORMER “Slipknot”
ISRC NLA329980194
INDEX 01 07:16:55
TRACK 04 AUDIO
TITLE “Spit It Out”
PERFORMER “Slipknot”
ISRC NLA329980196
INDEX 01 09:45:17
TRACK 05 AUDIO
TITLE “Surfacing”
PERFORMER “Slipknot”
ISRC NLA329980195
INDEX 01 12:25:58
TRACK 06 AUDIO
TITLE “People = Shit”
PERFORMER “Slipknot”
ISRC NLA320119546
INDEX 01 16:04:37
TRACK 07 AUDIO
TITLE “Disasterpiece”
PERFORMER “Slipknot”
ISRC NLA320119555
INDEX 01 19:40:05
TRACK 08 AUDIO
TITLE “Left Behind”
PERFORMER “Slipknot”
ISRC NLA320119537
INDEX 01 24:49:02
TRACK 09 AUDIO
TITLE “My Plague (New Abuse Mix)”
PERFORMER “Slipknot”
ISRC NLA320219712
INDEX 01 28:51:44
TRACK 10 AUDIO
TITLE “The Heretic Anthem (Live)”
PERFORMER “Slipknot”
ISRC NLA321292259
INDEX 01 31:54:44
TRACK 11 AUDIO
TITLE “Purity (Live)”
PERFORMER “Slipknot”
ISRC NLA321292260
INDEX 01 35:59:16
TRACK 12 AUDIO
TITLE “Pulse Of The Maggots”
PERFORMER “Slipknot”
ISRC NLA321292280
INDEX 01 40:34:43
TRACK 13 AUDIO
TITLE “Duality”
PERFORMER “Slipknot”
ISRC NLA320420785
INDEX 01 44:59:11
TRACK 14 AUDIO
TITLE “Before I Forget”
PERFORMER “Slipknot”
ISRC NLA321292281
INDEX 01 49:14:00
TRACK 15 AUDIO
TITLE “Vermilion”
PERFORMER “Slipknot”
ISRC NLA320420886
INDEX 01 53:38:28
TRACK 16 AUDIO
TITLE “Sulfur”
PERFORMER “Slipknot”
ISRC NLA321292282
INDEX 01 59:03:35
TRACK 17 AUDIO
TITLE “Psychosocial”
PERFORMER “Slipknot”
ISRC NLA321292283
INDEX 01 63:41:20
TRACK 18 AUDIO
TITLE “Dead Memories”
PERFORMER “Slipknot”
ISRC NLA320887872
INDEX 01 68:25:03
TRACK 19 AUDIO
TITLE “Snuff”
PERFORMER “Slipknot”
ISRC NLA321292284
INDEX 01 72:53:55

REM GENRE “Heavy Metal”
REM DATE 2012
REM DISCID F012A111
REM COMMENT “ExactAudioCopy v1.0b3”
PERFORMER “Slipknot”
TITLE “(Sic)nesses: Live At The Download Festival, 2009”
FILE “Slipknot – 2012 – (Sic)nesses Live At The Download Festival, 2009.flac” WAVE
TRACK 01 AUDIO
TITLE “(SIC)”
PERFORMER “Slipknot”
ISRC NLA321292263
INDEX 01 00:00:00
TRACK 02 AUDIO
TITLE “Eyeless”
PERFORMER “Slipknot”
ISRC NLA321292264
INDEX 01 03:45:17
TRACK 03 AUDIO
TITLE “Wait And Bleed”
PERFORMER “Slipknot”
ISRC NLA321292265
INDEX 01 07:56:50
TRACK 04 AUDIO
TITLE “Get This”
PERFORMER “Slipknot”
ISRC NLA321292266
INDEX 01 10:42:71
TRACK 05 AUDIO
TITLE “Before I Forget”
PERFORMER “Slipknot”
ISRC NLA321292267
INDEX 01 14:48:24
TRACK 06 AUDIO
TITLE “Sulfur”
PERFORMER “Slipknot”
ISRC NLA321292268
INDEX 01 19:11:06
TRACK 07 AUDIO
TITLE “The Blister Exists”
PERFORMER “Slipknot”
ISRC NLA321292269
INDEX 01 23:28:29
TRACK 08 AUDIO
TITLE “Dead Memories”
PERFORMER “Slipknot”
ISRC NLA321292270
INDEX 01 28:53:56
TRACK 09 AUDIO
TITLE “Left Behind”
PERFORMER “Slipknot”
ISRC NLA321292271
INDEX 01 32:58:09
TRACK 10 AUDIO
TITLE “Disasterpiece”
PERFORMER “Slipknot”
ISRC NLA321292272
INDEX 01 36:21:04
TRACK 11 AUDIO
TITLE “Vermilion”
PERFORMER “Slipknot”
ISRC NLA321292273
INDEX 01 41:21:30
TRACK 12 AUDIO
TITLE “Everything Ends”
PERFORMER “Slipknot”
ISRC NLA321292274
INDEX 01 47:37:50
TRACK 13 AUDIO
TITLE “Psychosocial”
PERFORMER “Slipknot”
ISRC NLA321292275
INDEX 01 52:20:07
TRACK 14 AUDIO
TITLE “Duality”
PERFORMER “Slipknot”
ISRC NLA321292276
INDEX 01 57:27:38
TRACK 15 AUDIO
TITLE “People = Shit”
PERFORMER “Slipknot”
ISRC NLA321292277
INDEX 01 62:13:41
TRACK 16 AUDIO
TITLE “Surfacing”
PERFORMER “Slipknot”
ISRC NLA321292278
INDEX 01 67:58:19
TRACK 17 AUDIO
TITLE “Spit It Out”
PERFORMER “Slipknot”
ISRC NLA321292279
INDEX 01 72:19:05


Spread the Download

Leave a Reply

Your email address will not be published. Required fields are marked *

Enter the text from the image below
 

This site uses Akismet to reduce spam. Learn how your comment data is processed.