Slipknot – All Hope Is Gone (Japanese Edition)




[Total: 0    Average: 0/5]

Artist: Slipknot
Year: 2008
Genre: Metal
Notes: Discogs
Add. Notes: Japanese Edition
Cover incl.: Yes
Encoder: FLAC
Bitrate: ~1000 kBit/s (44.1 kHz/16 Bit/s)
Log & Cue incl.: Yes
Size: 425,6 MB
Password: “slam” (without ” “)


All Downloads/Hosters are compatible

Download 1
Share-online.biz
KatFile.com
Rapidgator.net
NitroFlare.com
Download 2
Share-online.biz
KatFile.com
Rapidgator.net
NitroFlare.com

Tracklist:

1 - .Execute. - 1:49
2 - Gematria (The Killing Name) - 6:02
3 - Sulfur - 4:38
4 - Psychosocial - 4:44
5 - Dead Memories - 4:29
6 - Vendetta - 5:16
7 - Butcher's Hook - 4:15
8 - Gehenna - 6:53
9 - This Cold Black - 4:40
10 - Wherein Lies Continue - 5:37
11 - Snuff - 4:36
12 - All Hope Is Gone - 4:48

EAC-Log, CUE-Sheed & NFO:

Click to open spoiler
Exact Audio Copy V1.0 beta 3 from 29. August 2011

Отчёт EAC об извлечении, выполненном 17. октября
2014, 22:49

Slipknot / All Hope Is Gone

Дисковод: ASUS BW-12B1ST Adapter: 3 ID: 0

Режим чтения : Достоверность
Использование точного потока : Да
Отключение кэша аудио : Да
Использование указателей C2 : Нет

Коррекция смещения при чтении : 6
Способность читать области Lead-in и Lead-out :
Нет
Заполнение пропущенных сэмплов тишиной :
Да
Удаление блоков с тишиной в начале и конце :
Нет
При вычислениях CRC использовались нулевые
сэмплы : Да
Интерфейс : Встроенный
Win32-интерфейс для Win NT/2000

Выходной формат : Внутренние WAV-операции
Формат сэмплов : 44.100 Гц; 16 бит; стерео

TOC извлечённого CD

Трек | Старт | Длительность | Начальный сектор
| Конечный сектор
——————————————————————

1 | 0:00.00 | 1:48.42 | 0 | 8141
2 | 1:48.42 | 6:01.40 | 8142 | 35256
3 | 7:50.07 | 4:37.60 | 35257 | 56091
4 | 12:27.67 | 4:43.61 | 56092 | 77377
5 | 17:11.53 | 4:28.44 | 77378 | 97521
6 | 21:40.22 | 5:15.38 | 97522 |
121184
7 | 26:55.60 | 4:14.46 | 121185 |
140280
8 | 31:10.31 | 6:53.02 | 140281 |
171257
9 | 38:03.33 | 4:40.07 | 171258 |
192264
10 | 42:43.40 | 5:36.67 | 192265 |
217531
11 | 48:20.32 | 4:36.11 | 217532 |
238242
12 | 52:56.43 | 4:44.57 | 238243 |
259599

Характеристики диапазона извлечения и сообщения
об ошибках

Выбранный диапазон

Имя файла D:\EAC\Slipknot – 2008 – All Hope Is Gone
(Roadrunner Records – WPCR-15979)\Slipknot – 2008 – All
Hope Is Gone.wav

Пиковый уровень 100.0 %
Скорость извлечения 7.2 X
Качество диапазона 100.0 %
CRC теста 5F8383C4
CRC копии 5F8383C4
Копирование… OK

Ошибок не произошло

AccurateRip: сводка

Трек 1 : извлечено точно (доверие 57) [AC10A0E4]
(AR v2)
Трек 2 : извлечено точно (доверие 55) [A59B06CE]
(AR v2)
Трек 3 : извлечено точно (доверие 57) [AAC8B78D]
(AR v2)
Трек 4 : извлечено точно (доверие 57) [CDC819CE]
(AR v2)
Трек 5 : извлечено точно (доверие 57) [EAE88071]
(AR v2)
Трек 6 : извлечено точно (доверие 57) [F53B670E]
(AR v2)
Трек 7 : извлечено точно (доверие 56) [7145F2D3]
(AR v2)
Трек 8 : извлечено точно (доверие 56) [99F622EF]
(AR v2)
Трек 9 : извлечено точно (доверие 56) [CA2CD756]
(AR v2)
Трек 10 : извлечено точно (доверие 56) [0755AE00]
(AR v2)
Трек 11 : извлечено точно (доверие 57) [F0F4D6A9]
(AR v2)
Трек 12 : извлечено точно (доверие 57) [C9ECED39]
(AR v2)

Все треки извлечены точно

Конец отчёта

==== Контрольная сумма отчёта
0D1B0073284CCBCB005863D07208977F94366E30B6EB4
2DA10338D1DCD9DCA4C ====

REM GENRE “Heavy Metal”
REM DATE 2008
REM DISCID 960D850C
REM COMMENT “ExactAudioCopy v1.0b3”
CATALOG 0016861793821
PERFORMER “Slipknot”
TITLE “All Hope Is Gone”
FILE “Slipknot – 2008 – All Hope Is Gone.flac” WAVE
TRACK 01 AUDIO
TITLE “.execute.”
PERFORMER “Slipknot”
ISRC NLA320886999
INDEX 01 00:00:00
TRACK 02 AUDIO
TITLE “Gematria (The Killing Name)”
PERFORMER “Slipknot”
ISRC NLA320886998
INDEX 01 01:48:42
TRACK 03 AUDIO
TITLE “Sulfur”
PERFORMER “Slipknot”
ISRC NLA320887001
INDEX 01 07:50:07
TRACK 04 AUDIO
TITLE “Psychosocial”
PERFORMER “Slipknot”
ISRC NLA320886993
INDEX 01 12:27:67
TRACK 05 AUDIO
TITLE “Dead Memories”
PERFORMER “Slipknot”
ISRC NLA320886996
INDEX 01 17:11:53
TRACK 06 AUDIO
TITLE “Vendetta”
PERFORMER “Slipknot”
ISRC NLA320887003
INDEX 01 21:40:22
TRACK 07 AUDIO
TITLE “Butcher’s Hook”
PERFORMER “Slipknot”
ISRC NLA320887005
INDEX 01 26:55:60
TRACK 08 AUDIO
TITLE “Gehenna”
PERFORMER “Slipknot”
ISRC NLA320886997
INDEX 01 31:10:31
TRACK 09 AUDIO
TITLE “This Cold Black”
PERFORMER “Slipknot”
ISRC NLA320887002
INDEX 01 38:03:33
TRACK 10 AUDIO
TITLE “Wherein Lies Continue”
PERFORMER “Slipknot”
ISRC NLA320887004
INDEX 01 42:43:40
TRACK 11 AUDIO
TITLE “Snuff”
PERFORMER “Slipknot”
ISRC NLA320887000
INDEX 01 48:20:32
TRACK 12 AUDIO
TITLE “All Hope Is Gone”
PERFORMER “Slipknot”
ISRC NLA320886995
INDEX 01 52:56:43


Spread the Download

Leave a Reply

Your email address will not be published. Required fields are marked *

Enter the text from the image below
 

This site uses Akismet to reduce spam. Learn how your comment data is processed.