Slipknot – 9.0: Live (Japanese Edition)




[Total: 0    Average: 0/5]

Artist: Slipknot
Year: 2005
Genre: Metal
Notes: Discogs
Add. Notes: Japanese Edition
Cover incl.: Yes
Encoder: FLAC
Bitrate: ~1000 kBit/s (44.1 kHz/16 Bit/s)
Log & Cue incl.: Yes
Size: 851,24 MB
Password: “slam” (without ” “)


All Downloads/Hosters are compatible

Download 1
Share-online.biz
KatFile.com
Rapidgator.net
NitroFlare.com
Download 2
Share-online.biz
KatFile.com
Rapidgator.net
NitroFlare.com

Tracklist:

1-1 - The Blister Exists - 6:24
1-2 - (Sic) - 3:52
1-3 - Disasterpiece - 6:47
1-4 - Before I Forget - 4:24
1-5 - Left Behind - 3:44
1-6 - Liberate - 3:48
1-7 - Vermilion - 5:55
1-8 - Pulse Of The Maggots - 5:06
1-9 - Purity - 5:12
1-10 - Eyeless - 4:19
1-11 - Drum Solo - 3:58
1-12 - Eeyore - 2:16

2-1 - Three Nil - 5:03
2-2 - The Nameless - 5:28
2-3 - Skin Ticket - 6:03
2-4 - Everything Ends - 5:03
2-5 - The Heretic Anthem - 4:08
2-6 - Iowa - 6:37
2-7 - Duality - 6:07
2-8 - Spit It Out - 5:29
2-9 - People = Shit - 5:53
2-10 - Get This - 2:44
2-11 - Wait And Bleed - 3:44
2-12 - Surfacing - 5:50

EAC-Log, CUE-Sheed & NFO:

Click to open spoiler
Exact Audio Copy V1.0 beta 3 from 29. August 2011

Отчёт EAC об извлечении, выполненном 17. октября 2014, 23:25

Slipknot / 9.0: Live

Дисковод: ASUS BW-12B1ST Adapter: 3 ID: 0

Режим чтения : Достоверность
Использование точного потока : Да
Отключение кэша аудио : Да
Использование указателей C2 : Нет

Коррекция смещения при чтении : 6
Способность читать области Lead-in и Lead-out : Нет
Заполнение пропущенных сэмплов тишиной : Да
Удаление блоков с тишиной в начале и конце : Нет
При вычислениях CRC использовались нулевые сэмплы : Да
Интерфейс : Встроенный Win32-интерфейс для Win NT/2000

Выходной формат : Внутренние WAV-операции
Формат сэмплов : 44.100 Гц; 16 бит; стерео

TOC извлечённого CD

Трек | Старт | Длительность | Начальный сектор | Конечный сектор
———————————————————————
1 | 0:00.00 | 6:24.34 | 0 | 28833
2 | 6:24.34 | 3:52.57 | 28834 | 46290
3 | 10:17.16 | 6:47.35 | 46291 | 76850
4 | 17:04.51 | 4:24.46 | 76851 | 96696
5 | 21:29.22 | 3:44.07 | 96697 | 113503
6 | 25:13.29 | 3:48.63 | 113504 | 130666
7 | 29:02.17 | 5:55.72 | 130667 | 157363
8 | 34:58.14 | 5:06.41 | 157364 | 180354
9 | 40:04.55 | 5:12.21 | 180355 | 203775
10 | 45:17.01 | 4:19.34 | 203776 | 223234
11 | 49:36.35 | 3:58.21 | 223235 | 241105
12 | 53:34.56 | 2:16.59 | 241106 | 251364

Характеристики диапазона извлечения и сообщения об ошибках

Выбранный диапазон

Имя файла D:\EAC\Slipknot – 2005 – 9.0 Live (Roadrunner Records – WPCR-1462-1)\CD 1 Chapter no. One\Slipknot – 2005 – 9.0 Live.wav

Пиковый уровень 100.0 %
Скорость извлечения 3.3 X
Качество диапазона 99.9 %
CRC теста BCFD35FB
CRC копии BCFD35FB
Копирование… OK

Ошибок не произошло

AccurateRip: сводка

Трек 1 отсутствует в базе данных
Трек 2 отсутствует в базе данных
Трек 3 отсутствует в базе данных
Трек 4 отсутствует в базе данных
Трек 5 отсутствует в базе данных
Трек 6 отсутствует в базе данных
Трек 7 отсутствует в базе данных
Трек 8 отсутствует в базе данных
Трек 9 отсутствует в базе данных
Трек 10 отсутствует в базе данных
Трек 11 отсутствует в базе данных
Трек 12 отсутствует в базе данных

Ни одного трека нет в базе AccurateRip

Конец отчёта

==== Контрольная сумма отчёта C62B86DDC9E7C35AB10EF08A0585E65DA819828F5B400C4134D583842FACC33E ====

REM GENRE “Nu Metal”
REM DATE 2005
REM DISCID 9D0D170C
REM COMMENT “ExactAudioCopy v1.0b3”
CATALOG 4943674124619
PERFORMER “Slipknot”
TITLE “9.0: Live”
FILE “Slipknot – 2005 – 9.0 Live.flac” WAVE
TRACK 01 AUDIO
TITLE “The Blister Exists”
PERFORMER “Slipknot”
ISRC NLA320581436
INDEX 01 00:00:00
TRACK 02 AUDIO
TITLE “(Sic)”
PERFORMER “Slipknot”
ISRC NLA320581418
INDEX 01 06:24:34
TRACK 03 AUDIO
TITLE “Disasterpiece”
PERFORMER “Slipknot”
ISRC NLA320581420
INDEX 01 10:17:16
TRACK 04 AUDIO
TITLE “Before I Forget”
PERFORMER “Slipknot”
ISRC NLA320581419
INDEX 01 17:04:51
TRACK 05 AUDIO
TITLE “Left Behind”
PERFORMER “Slipknot”
ISRC NLA320581428
INDEX 01 21:29:22
TRACK 06 AUDIO
TITLE “Liberate”
PERFORMER “Slipknot”
ISRC NLA320581429
INDEX 01 25:13:29
TRACK 07 AUDIO
TITLE “Vermilion”
PERFORMER “Slipknot”
ISRC NLA320581440
INDEX 01 29:02:17
TRACK 08 AUDIO
TITLE “Pulse Of The Maggots”
PERFORMER “Slipknot”
ISRC NLA320581431
INDEX 01 34:58:14
TRACK 09 AUDIO
TITLE “Purity”
PERFORMER “Slipknot”
ISRC NLA320581432
INDEX 01 40:04:55
TRACK 10 AUDIO
TITLE “Eyeless”
PERFORMER “Slipknot”
ISRC NLA320581424
INDEX 01 45:17:01
TRACK 11 AUDIO
TITLE “Drum Solo”
PERFORMER “Slipknot”
ISRC NLA320581421
INDEX 01 49:36:35
TRACK 12 AUDIO
TITLE “Eeyore”
PERFORMER “Slipknot”
ISRC NLA320581425
INDEX 01 53:34:56

Exact Audio Copy V1.0 beta 3 from 29. August 2011

Отчёт EAC об извлечении, выполненном 18. октября 2014, 0:03

Slipknot / 9.0: Live

Дисковод: ASUS BW-12B1ST Adapter: 3 ID: 0

Режим чтения : Достоверность
Использование точного потока : Да
Отключение кэша аудио : Да
Использование указателей C2 : Нет

Коррекция смещения при чтении : 6
Способность читать области Lead-in и Lead-out : Нет
Заполнение пропущенных сэмплов тишиной : Да
Удаление блоков с тишиной в начале и конце : Нет
При вычислениях CRC использовались нулевые сэмплы : Да
Интерфейс : Встроенный Win32-интерфейс для Win NT/2000

Выходной формат : Внутренние WAV-операции
Формат сэмплов : 44.100 Гц; 16 бит; стерео

TOC извлечённого CD

Трек | Старт | Длительность | Начальный сектор | Конечный сектор
———————————————————————
1 | 0:00.00 | 5:03.61 | 0 | 22785
2 | 5:03.61 | 5:28.60 | 22786 | 47445
3 | 10:32.46 | 6:03.53 | 47446 | 74723
4 | 16:36.24 | 5:03.45 | 74724 | 97493
5 | 21:39.69 | 4:08.44 | 97494 | 116137
6 | 25:48.38 | 6:37.18 | 116138 | 145930
7 | 32:25.56 | 6:07.39 | 145931 | 173494
8 | 38:33.20 | 5:29.28 | 173495 | 198197
9 | 44:02.48 | 5:53.52 | 198198 | 224724
10 | 49:56.25 | 2:44.34 | 224725 | 237058
11 | 52:40.59 | 3:44.06 | 237059 | 253864
12 | 56:24.65 | 5:50.70 | 253865 | 280184

Характеристики диапазона извлечения и сообщения об ошибках

Выбранный диапазон

Имя файла D:\EAC\Slipknot – 2005 – 9.0 Live (Roadrunner Records – WPCR-1462-1)\CD 2 Chapter no. Two\Slipknot – 2005 – 9.0 Live.wav

Пиковый уровень 100.0 %
Скорость извлечения 3.4 X
Качество диапазона 100.0 %
CRC теста 4DD46E88
CRC копии 4DD46E88
Копирование… OK

Ошибок не произошло

AccurateRip: сводка

Трек 1 отсутствует в базе данных
Трек 2 отсутствует в базе данных
Трек 3 отсутствует в базе данных
Трек 4 отсутствует в базе данных
Трек 5 отсутствует в базе данных
Трек 6 отсутствует в базе данных
Трек 7 отсутствует в базе данных
Трек 8 отсутствует в базе данных
Трек 9 отсутствует в базе данных
Трек 10 отсутствует в базе данных
Трек 11 отсутствует в базе данных
Трек 12 отсутствует в базе данных

Ни одного трека нет в базе AccurateRip

Конец отчёта

==== Контрольная сумма отчёта 61275A8D5923833CE59A1675016B4D6056CD258A867AC5B2608D53BD3D7CEB85 ====

REM GENRE “Nu Metal”
REM DATE 2005
REM DISCID AD0E970C
REM COMMENT “ExactAudioCopy v1.0b3”
CATALOG 4943674124619
PERFORMER “Slipknot”
TITLE “9.0: Live”
FILE “Slipknot – 2005 – 9.0 Live.flac” WAVE
TRACK 01 AUDIO
TITLE “Three Nil”
PERFORMER “Slipknot”
ISRC NLA320581439
INDEX 01 00:00:00
TRACK 02 AUDIO
TITLE “The Nameless”
PERFORMER “Slipknot”
ISRC NLA320581438
INDEX 01 05:03:61
TRACK 03 AUDIO
TITLE “Skin Ticket”
PERFORMER “Slipknot”
ISRC NLA320581433
INDEX 01 10:32:46
TRACK 04 AUDIO
TITLE “Everything Ends”
PERFORMER “Slipknot”
ISRC NLA320581423
INDEX 01 16:36:24
TRACK 05 AUDIO
TITLE “The Heretic Anthem”
PERFORMER “Slipknot”
ISRC NLA320581437
INDEX 01 21:39:69
TRACK 06 AUDIO
TITLE “Iowa”
PERFORMER “Slipknot”
ISRC NLA320581427
INDEX 01 25:48:38
TRACK 07 AUDIO
TITLE “Duality”
PERFORMER “Slipknot”
ISRC NLA320581422
INDEX 01 32:25:56
TRACK 08 AUDIO
TITLE “Spit It Out”
PERFORMER “Slipknot”
ISRC NLA320581434
INDEX 01 38:33:20
TRACK 09 AUDIO
TITLE “People = Shit”
PERFORMER “Slipknot”
ISRC NLA320581430
INDEX 01 44:02:48
TRACK 10 AUDIO
TITLE “Get This”
PERFORMER “Slipknot”
ISRC NLA320581426
INDEX 01 49:56:25
TRACK 11 AUDIO
TITLE “Wait And Bleed”
PERFORMER “Slipknot”
ISRC NLA320581441
INDEX 01 52:40:59
TRACK 12 AUDIO
TITLE “Surfacing”
PERFORMER “Slipknot”
ISRC NLA320581435
INDEX 01 56:24:65


Spread the Download

Leave a Reply

Your email address will not be published. Required fields are marked *

Enter the text from the image below
 

This site uses Akismet to reduce spam. Learn how your comment data is processed.