Slipknot – .5: The Gray Chapter (Japanese Special Edition)




Artist: Slipknot
Year: 2014
Genre: Metal
Notes: Discogs
Add. Notes: Japanese Special Edition
Cover incl.: No
Encoder: FLAC
Bitrate: ~1000 kBit/s (44.1 kHz/16 Bit/s)
Log & Cue incl.: Yes
Size: 570 MB
Password: “slam” (without ” “)


All Downloads/Hosters are compatible

Download 1
KatFile.com
Rapidgator.net
Turbobit.net
FileFactory.com
Download 2
KatFile.com
Rapidgator.net
Turbobit.net
FileFactory.com

Tracklist:

1-01 - XIX - 3:10
1-02 - Sarcastrophe - 5:06
1-03 - AOV - 5:32
1-04 - The Devil In I - 5:42
1-05 - Killpop - 3:45
1-06 - Skeptic - 4:46
1-07 - Lech - 4:50
1-08 - Goodbye - 4:35
1-09 - Nomadic - 4:18
1-10 - The One That Kills The Least - 
4:11
1-11 - Custer - 4:14
1-12 - Be Prepared For Hell - 1:57
1-13 - The Negative One - 5:25
1-14 - If Rain Is What You Want - 
6:20

2-01 - Override - 5:37
2-02 - The Burden - 5:23
2-03 - Untitled - 2:00
2-04 - Untitled - 6:19
2-05 - Untitled - 1:28

EAC-Log, CUE-Sheed & NFO:

Click to open spoiler
Exact Audio Copy V1.0 beta 3 from 29. August 2011

Отчёт EAC об извлечении, выполненном 18. октября 2014, 2:11

Slipknot / .5: The Gray Chapter

Дисковод: ASUS BW-12B1ST Adapter: 3 ID: 0

Режим чтения : Достоверность
Использование точного потока : Да
Отключение кэша аудио : Да
Использование указателей C2 : Нет

Коррекция смещения при чтении : 6
Способность читать области Lead-in и Lead-out : Нет
Заполнение пропущенных сэмплов тишиной : Да
Удаление блоков с тишиной в начале и конце : Нет
При вычислениях CRC использовались нулевые сэмплы : Да
Интерфейс : Встроенный Win32-интерфейс для Win NT/2000

Выходной формат : Внутренние WAV-операции
Формат сэмплов : 44.100 Гц; 16 бит; стерео

TOC извлечённого CD

Трек | Старт | Длительность | Начальный сектор | Конечный сектор
———————————————————————
1 | 0:00.00 | 3:10.11 | 0 | 14260
2 | 3:10.11 | 5:06.06 | 14261 | 37216
3 | 8:16.17 | 5:32.68 | 37217 | 62184
4 | 13:49.10 | 5:42.62 | 62185 | 87896
5 | 19:31.72 | 3:45.05 | 87897 | 104776
6 | 23:17.02 | 4:46.42 | 104777 | 126268
7 | 28:03.44 | 4:50.32 | 126269 | 148050
8 | 32:54.01 | 4:35.10 | 148051 | 168685
9 | 37:29.11 | 4:18.27 | 168686 | 188062
10 | 41:47.38 | 4:11.39 | 188063 | 206926
11 | 45:59.02 | 4:14.35 | 206927 | 226011
12 | 50:13.37 | 1:57.70 | 226012 | 234856
13 | 52:11.32 | 5:25.13 | 234857 | 259244
14 | 57:36.45 | 6:20.68 | 259245 | 287812

Характеристики диапазона извлечения и сообщения об ошибках

Выбранный диапазон

Имя файла D:\EAC\Slipknot – 2014 – .5 The Gray Chapter (Roadrunner Records – WPCR-16130-1)\CD 1\Slipknot – 2014 – .5 The Gray Chapter.wav

Пиковый уровень 100.0 %
Скорость извлечения 3.5 X
Качество диапазона 100.0 %
CRC теста A7E26F30
CRC копии A7E26F30
Копирование… OK

Ошибок не произошло

AccurateRip: сводка

Трек 1 отсутствует в базе данных
Трек 2 отсутствует в базе данных
Трек 3 отсутствует в базе данных
Трек 4 отсутствует в базе данных
Трек 5 отсутствует в базе данных
Трек 6 отсутствует в базе данных
Трек 7 отсутствует в базе данных
Трек 8 отсутствует в базе данных
Трек 9 отсутствует в базе данных
Трек 10 отсутствует в базе данных
Трек 11 отсутствует в базе данных
Трек 12 отсутствует в базе данных
Трек 13 отсутствует в базе данных
Трек 14 отсутствует в базе данных

Ни одного трека нет в базе AccurateRip

Конец отчёта

==== Контрольная сумма отчёта 8D36DD5E012C9E8E678AACD04B1EEDC8409B07D3644C43B875158410A4AEB029 ====

Exact Audio Copy V1.0 beta 3 from 29. August 2011

Отчёт EAC об извлечении, выполненном 18. октября 2014, 2:31

Slipknot / .5: The Gray Chapter

Дисковод: ASUS BW-12B1ST Adapter: 3 ID: 0

Режим чтения : Достоверность
Использование точного потока : Да
Отключение кэша аудио : Да
Использование указателей C2 : Нет

Коррекция смещения при чтении : 6
Способность читать области Lead-in и Lead-out : Нет
Заполнение пропущенных сэмплов тишиной : Да
Удаление блоков с тишиной в начале и конце : Нет
При вычислениях CRC использовались нулевые сэмплы : Да
Интерфейс : Встроенный Win32-интерфейс для Win NT/2000

Выходной формат : Внутренние WAV-операции
Формат сэмплов : 44.100 Гц; 16 бит; стерео

TOC извлечённого CD

Трек | Старт | Длительность | Начальный сектор | Конечный сектор
———————————————————————
1 | 0:00.00 | 5:37.20 | 0 | 25294
2 | 5:37.20 | 5:23.22 | 25295 | 49541
3 | 11:00.42 | 2:00.00 | 49542 | 58541
4 | 13:00.42 | 6:19.39 | 58542 | 87005
5 | 19:20.06 | 1:28.54 | 87006 | 93659

Характеристики диапазона извлечения и сообщения об ошибках

Выбранный диапазон

Имя файла D:\EAC\Slipknot – 2014 – .5 The Gray Chapter (Roadrunner Records – WPCR-16130-1)\CD 2\Slipknot – 2014 – .5 The Gray Chapter.wav

Пиковый уровень 100.0 %
Скорость извлечения 2.6 X
Качество диапазона 100.0 %
CRC теста 1766336C
CRC копии 1766336C
Копирование… OK

Ошибок не произошло

AccurateRip: сводка

Трек 1 отсутствует в базе данных
Трек 2 отсутствует в базе данных
Трек 3 отсутствует в базе данных
Трек 4 отсутствует в базе данных
Трек 5 отсутствует в базе данных

Ни одного трека нет в базе AccurateRip

Конец отчёта

==== Контрольная сумма отчёта 68E6E170AACBC60E96E036C5EC31D983CCB412CADCAD4979EFE2C52A51C23AE3 ====

REM GENRE Metal
REM DATE 2014
REM DISCID CD0EFD0E
REM COMMENT “ExactAudioCopy v1.0b3”
CATALOG 4943674198894
PERFORMER “Slipknot”
TITLE “.5: The Gray Chapter”
FILE “Slipknot – 2014 – .5 The Gray Chapter.flac” WAVE
TRACK 01 AUDIO
TITLE “XIX”
PERFORMER “Slipknot”
ISRC NLA321400349
INDEX 01 00:00:00
TRACK 02 AUDIO
TITLE “Sarcastrophe”
PERFORMER “Slipknot”
ISRC NLA321400350
INDEX 01 03:10:11
TRACK 03 AUDIO
TITLE “AOV”
PERFORMER “Slipknot”
ISRC NLA321400351
INDEX 01 08:16:17
TRACK 04 AUDIO
TITLE “The Devil In I”
PERFORMER “Slipknot”
ISRC NLA321400348
INDEX 01 13:49:10
TRACK 05 AUDIO
TITLE “Killpop”
PERFORMER “Slipknot”
ISRC NLA321400352
INDEX 01 19:31:72
TRACK 06 AUDIO
TITLE “Skeptic”
PERFORMER “Slipknot”
ISRC NLA321400353
INDEX 01 23:17:02
TRACK 07 AUDIO
TITLE “Lech”
PERFORMER “Slipknot”
ISRC NLA321400446
INDEX 01 28:03:44
TRACK 08 AUDIO
TITLE “Goodbye”
PERFORMER “Slipknot”
ISRC NLA321400440
INDEX 01 32:54:01
TRACK 09 AUDIO
TITLE “Nomadic”
PERFORMER “Slipknot”
ISRC NLA321400447
INDEX 01 37:29:11
TRACK 10 AUDIO
TITLE “The One that Kills The Least”
PERFORMER “Slipknot”
ISRC NLA321400442
INDEX 01 41:47:38
TRACK 11 AUDIO
TITLE “Custer”
PERFORMER “Slipknot”
ISRC NLA321400448
INDEX 01 45:59:02
TRACK 12 AUDIO
TITLE “Be Prepared For Hell”
PERFORMER “Slipknot”
ISRC NLA321400444
INDEX 01 50:13:37
TRACK 13 AUDIO
TITLE “The Negative One”
PERFORMER “Slipknot”
ISRC NLA321400313
INDEX 01 52:11:32
TRACK 14 AUDIO
TITLE “If Rain Is What You Want”
PERFORMER “Slipknot”
ISRC NLA321400445
INDEX 01 57:36:45

REM GENRE Metal
REM DATE 2014
REM DISCID 3A04E005
REM COMMENT “ExactAudioCopy v1.0b3”
CATALOG 4943674198894
PERFORMER “Slipknot”
TITLE “.5: The Gray Chapter”
FILE “Slipknot – 2014 – .5 The Gray Chapter.flac” WAVE
TRACK 01 AUDIO
TITLE “Override”
PERFORMER “Slipknot”
ISRC NLA321400449
INDEX 01 00:00:00
TRACK 02 AUDIO
TITLE “The Burden”
PERFORMER “Slipknot”
ISRC NLA321400450
INDEX 01 05:37:20
TRACK 03 AUDIO
TITLE “[silence]”
PERFORMER “Slipknot”
ISRC NLA321400459
INDEX 01 11:00:42
TRACK 04 AUDIO
TITLE “Talk”
PERFORMER “Slipknot”
ISRC NLA321400460
INDEX 01 13:00:42
TRACK 05 AUDIO
TITLE “Funny”
PERFORMER “Slipknot”
ISRC NLA321400461
INDEX 01 19:20:06


Leave a Reply

Your email address will not be published. Required fields are marked *

Enter the text from the image below
 

This site uses Akismet to reduce spam. Learn how your comment data is processed.