Sleaford Mods – Eton Alive




Artist: Sleaford Mods
Year: 2019
Genre: Punk
Notes: Discogs
Add. Notes:
Cover incl.: Yes
Encoder: FLAC
Bitrate: ~800 kBit/s (44.1 kHz/16 Bit/s)
Log & Cue incl.: Yes
Size: 227,86 MB
Password: “slam” (without ” “)


All Downloads/Hosters are compatible

Download 1
Turbobit.net
Rapidgator.net
UploadEver.com
KatFile.com
UsersDrive.com
Download 2
Turbobit.net
Rapidgator.net
UploadEver.com
KatFile.com
UsersDrive.com
Download 3
Turbobit.net
Rapidgator.net
UploadEver.com
KatFile.com
UsersDrive.com

Tracklist:

1. Into The Payzone. 
2. Kebab Spider. 
3. Policy Cream. 
4. OBCT. 
5. When You Come Up To Me. 
6. Top It Up. 
7. Flipside. 
8. Subtraction. 
9. Firewall. 
10. Big Burt. 
11. Discourse. 
12. Negative Script

EAC-Log, CUE-Sheed & NFO:

Click to open spoiler
Exact Audio Copy V1.3 from 2. September 2016

EAC extraction logfile from 6. March 2019, 11:15

Sleaford Mods / Eton Alive

Used drive : Optiarc DVD RW AD-7190S Adapter: 1 ID: 2

Read mode : Secure
Utilize accurate stream : Yes
Defeat audio cache : Yes
Make use of C2 pointers : No

Read offset correction : 6
Overread into Lead-In and Lead-Out : No
Fill up missing offset samples with silence : Yes
Delete leading and trailing silent blocks : No
Null samples used in CRC calculations : Yes
Used interface : Native Win32 interface for Win NT & 2000
Gap handling : Appended to previous track

Used output format : User Defined Encoder
Selected bitrate : 1024 kBit/s
Quality : High
Add ID3 tag : No
Command line compressor : C:\Program Files (x86)\Exact Audio Copy\Flac\flac.exe
Additional command line options : -8 -V -T “ARTIST=%artist%” -T “TITLE=%title%” -T “ALBUM=%albumtitle%” -T “DATE=%year%” -T “TRACKNUMBER=%tracknr%” -T “GENRE=%genre%” -T “PERFORMER=%albuminterpret%” -T “COMPOSER=%composer%” %haslyrics%–tag-from-file=LYRICS=”%lyricsfile%”%haslyrics% -T “ALBUMARTIST=%albumartist%” -T “DISCNUMBER=%cdnumber%” -T “TOTALDISCS=%totalcds%” -T “TOTALTRACKS=%numtracks%” -T “COMMENT=%comment%” %source% -o %dest%

TOC of the extracted CD

Track | Start | Length | Start sector | End sector
———————————————————
1 | 0:00.00 | 2:17.15 | 0 | 10289
2 | 2:17.15 | 3:40.52 | 10290 | 26841
3 | 5:57.67 | 3:29.44 | 26842 | 42560
4 | 9:27.36 | 4:05.02 | 42561 | 60937
5 | 13:32.38 | 3:43.42 | 60938 | 77704
6 | 17:16.05 | 2:45.07 | 77705 | 90086
7 | 20:01.12 | 2:40.53 | 90087 | 102139
8 | 22:41.65 | 3:16.65 | 102140 | 116904
9 | 25:58.55 | 3:22.53 | 116905 | 132107
10 | 29:21.33 | 3:20.31 | 132108 | 147138
11 | 32:41.64 | 3:21.50 | 147139 | 162263
12 | 36:03.39 | 2:46.40 | 162264 | 174753

Track 1

Filename C:\New Rips\Sleaford Mods – 2019 – Eton Alive (EE001CD)\01 Into the Payzone.wav

Pre-gap length 0:00:02.00

Peak level 96.6 %
Extraction speed 3.0 X
Track quality 100.0 %
Test CRC 919173B9
Copy CRC 919173B9
Track not present in AccurateRip database
Copy OK

Track 2

Filename C:\New Rips\Sleaford Mods – 2019 – Eton Alive (EE001CD)\02 Kebab Spider.wav

Peak level 96.6 %
Extraction speed 3.5 X
Track quality 100.0 %
Test CRC DB983C63
Copy CRC DB983C63
Track not present in AccurateRip database
Copy OK

Track 3

Filename C:\New Rips\Sleaford Mods – 2019 – Eton Alive (EE001CD)\03 Policy Cream.wav

Peak level 96.6 %
Extraction speed 3.8 X
Track quality 100.0 %
Test CRC 50E8F2BD
Copy CRC 50E8F2BD
Track not present in AccurateRip database
Copy OK

Track 4

Filename C:\New Rips\Sleaford Mods – 2019 – Eton Alive (EE001CD)\04 O.B.C.T.wav

Peak level 96.6 %
Extraction speed 3.4 X
Track quality 99.9 %
Test CRC 37C86EB7
Copy CRC 37C86EB7
Track not present in AccurateRip database
Copy OK

Track 5

Filename C:\New Rips\Sleaford Mods – 2019 – Eton Alive (EE001CD)\05 When You Come up To Me.wav

Peak level 96.6 %
Extraction speed 4.4 X
Track quality 100.0 %
Test CRC 981B8B0C
Copy CRC 981B8B0C
Track not present in AccurateRip database
Copy OK

Track 6

Filename C:\New Rips\Sleaford Mods – 2019 – Eton Alive (EE001CD)\06 Top It Up.wav

Peak level 96.6 %
Extraction speed 4.4 X
Track quality 100.0 %
Test CRC B8F23E70
Copy CRC B8F23E70
Track not present in AccurateRip database
Copy OK

Track 7

Filename C:\New Rips\Sleaford Mods – 2019 – Eton Alive (EE001CD)\07 Flipside.wav

Peak level 96.6 %
Extraction speed 4.5 X
Track quality 100.0 %
Test CRC 273C0E73
Copy CRC 273C0E73
Track not present in AccurateRip database
Copy OK

Track 8

Filename C:\New Rips\Sleaford Mods – 2019 – Eton Alive (EE001CD)\08 Subtraction.wav

Peak level 96.6 %
Extraction speed 3.8 X
Track quality 99.9 %
Test CRC 4A9E0CDB
Copy CRC 4A9E0CDB
Track not present in AccurateRip database
Copy OK

Track 9

Filename C:\New Rips\Sleaford Mods – 2019 – Eton Alive (EE001CD)\09 Firewall.wav

Peak level 96.6 %
Extraction speed 5.1 X
Track quality 100.0 %
Test CRC 84F5344B
Copy CRC 84F5344B
Track not present in AccurateRip database
Copy OK

Track 10

Filename C:\New Rips\Sleaford Mods – 2019 – Eton Alive (EE001CD)\10 Big Burt.wav

Peak level 96.6 %
Extraction speed 5.2 X
Track quality 100.0 %
Test CRC D6388B7A
Copy CRC D6388B7A
Track not present in AccurateRip database
Copy OK

Track 11

Filename C:\New Rips\Sleaford Mods – 2019 – Eton Alive (EE001CD)\11 Discourse.wav

Peak level 96.6 %
Extraction speed 5.4 X
Track quality 100.0 %
Test CRC 8B5EED84
Copy CRC 8B5EED84
Track not present in AccurateRip database
Copy OK

Track 12

Filename C:\New Rips\Sleaford Mods – 2019 – Eton Alive (EE001CD)\12 Negative Script.wav

Peak level 96.6 %
Extraction speed 5.3 X
Track quality 100.0 %
Test CRC E5EDD5A5
Copy CRC E5EDD5A5
Track not present in AccurateRip database
Copy OK

None of the tracks are present in the AccurateRip database

No errors occurred

End of status report

—- CUETools DB Plugin V2.1.6

[CTDB TOCID: 84h2IaAO3ZWX6lN2iuNX7RGq8io-] found
Submit result: 84h2IaAO3ZWX6lN2iuNX7RGq8io- has been confirmed
Track | CTDB Status
1 | (13/13) Accurately ripped
2 | (13/13) Accurately ripped
3 | (13/13) Accurately ripped
4 | (13/13) Accurately ripped
5 | (13/13) Accurately ripped
6 | (13/13) Accurately ripped
7 | (13/13) Accurately ripped
8 | (13/13) Accurately ripped
9 | (13/13) Accurately ripped
10 | (13/13) Accurately ripped
11 | (13/13) Accurately ripped
12 | (13/13) Accurately ripped

==== Log checksum EDB0AF8608AE81AC21DACEC81BB8B3E12CF5F650710FCF795EEE10ED4DE07F5F ====

REM GENRE “Punk Rock”
REM DATE 2019
REM DISCID 9E091A0C
REM COMMENT “ExactAudioCopy v1.3”
FILE “01 Into the Payzone.wav” WAVE
TRACK 01 AUDIO
FLAGS DCP
INDEX 01 00:00:00
FILE “02 Kebab Spider.wav” WAVE
TRACK 02 AUDIO
FLAGS DCP
INDEX 01 00:00:00
FILE “03 Policy Cream.wav” WAVE
TRACK 03 AUDIO
FLAGS DCP
INDEX 01 00:00:00
FILE “04 O.B.C.T.wav” WAVE
TRACK 04 AUDIO
FLAGS DCP
INDEX 01 00:00:00
FILE “05 When You Come up To Me.wav” WAVE
TRACK 05 AUDIO
FLAGS DCP
INDEX 01 00:00:00
FILE “06 Top It Up.wav” WAVE
TRACK 06 AUDIO
FLAGS DCP
INDEX 01 00:00:00
FILE “07 Flipside.wav” WAVE
TRACK 07 AUDIO
FLAGS DCP
INDEX 01 00:00:00
FILE “08 Subtraction.wav” WAVE
TRACK 08 AUDIO
FLAGS DCP
INDEX 01 00:00:00
FILE “09 Firewall.wav” WAVE
TRACK 09 AUDIO
FLAGS DCP
INDEX 01 00:00:00
FILE “10 Big Burt.wav” WAVE
TRACK 10 AUDIO
FLAGS DCP
INDEX 01 00:00:00
FILE “11 Discourse.wav” WAVE
TRACK 11 AUDIO
FLAGS DCP
INDEX 01 00:00:00
FILE “12 Negative Script.wav” WAVE
TRACK 12 AUDIO
FLAGS DCP
INDEX 01 00:00:00


Leave a Reply

Your email address will not be published. Required fields are marked *

Enter the text from the image below
 

This site uses Akismet to reduce spam. Learn how your comment data is processed.