Slayer – South Of Heaven




Artist: Slayer
Year: 1988
Genre: Metal
Notes: Discogs
Add. Notes:
Encoder: FLAC
Bitrate: ~900 kBit/s (VBR)
Size: 254,01 MB
Password: “slam” (without ” “)


Tracklist:

1 - South Of Heaven - 5:00
2 - Silent Scream - 3:02
3 - Live Undead - 3:51
4 - Behind The Crooked Cross - 3:12
5 - Mandatory Suicide - 4:03
6 - Ghosts Of War - 3:55
7 - Read Between The Lies - 3:21
8 - Cleanse The Soul - 3:01
9 - Dissident Aggressor - 2:34
10 - Spill The Blood - 4:48

EAC-Log, CUE-Sheed & NFO:

Click to open spoiler
Exact Audio Copy V0.99 prebeta 4 from 23. January 2008

EAC extraction logfile from 25. July 2010, 19:31

Slayer / South Of Heaven

Used drive : HL-DT-STDVD-RAM GSA-H55N Adapter: 0 ID: 0

Read mode : Secure
Utilize accurate stream : Yes
Defeat audio cache : Yes
Make use of C2 pointers : No

Read offset correction : 102
Overread into Lead-In and Lead-Out : No
Fill up missing offset samples with silence : Yes
Delete leading and trailing silent blocks : No
Null samples used in CRC calculations : Yes
Used interface : Native Win32 interface for Win NT & 2000
Gap handling : Appended to previous track

Used output format : User Defined Encoder
Selected bitrate : 320 kBit/s
Quality : High
Add ID3 tag : No
Command line compressor : C:\Program Files (x86)\Exact Audio Copy\Flac\flac.exe
Additional command line options : -V -8 -T “artist=%a” -T “title=%t” -T “album=%g” -T “date=%y” -T “tracknumber=%n” -T “genre=%m” %s

TOC of the extracted CD

Track | Start | Length | Start sector | End sector
———————————————————
1 | 0:00.00 | 4:59.73 | 0 | 22497
2 | 4:59.73 | 3:04.55 | 22498 | 36352
3 | 8:04.53 | 3:50.02 | 36353 | 53604
4 | 11:54.55 | 3:14.55 | 53605 | 68209
5 | 15:09.35 | 4:05.08 | 68210 | 86592
6 | 19:14.43 | 3:53.35 | 86593 | 104102
7 | 23:08.03 | 3:20.15 | 104103 | 119117
8 | 26:28.18 | 3:02.00 | 119118 | 132767
9 | 29:30.18 | 2:35.17 | 132768 | 144409
10 | 32:05.35 | 4:50.10 | 144410 | 166169

Track 1

Filename C:\EACRips\Slayer – 1988 – South Of Heaven\01 – South Of Heaven.wav

Pre-gap length 0:00:02.00

Peak level 99.1 %
Track quality 99.8 %
Test CRC 4840F30C
Copy CRC 4840F30C
Cannot be verified as accurate (confidence 38) [8CADC792], AccurateRip returned [5898B5DB]
Copy OK

Track 2

Filename C:\EACRips\Slayer – 1988 – South Of Heaven\02 – Silent Scream.wav

Peak level 100.0 %
Track quality 99.8 %
Test CRC B66E0533
Copy CRC B66E0533
Cannot be verified as accurate (confidence 37) [8E7E6CA4], AccurateRip returned [0F5122BF]
Copy OK

Track 3

Filename C:\EACRips\Slayer – 1988 – South Of Heaven\03 – Live Undead.wav

Peak level 100.0 %
Track quality 100.0 %
Test CRC 445D4CAA
Copy CRC 445D4CAA
Cannot be verified as accurate (confidence 37) [1EE9658F], AccurateRip returned [45C23EFE]
Copy OK

Track 4

Filename C:\EACRips\Slayer – 1988 – South Of Heaven\04 – Behind The Crooked Cross.wav

Peak level 98.9 %
Track quality 100.0 %
Test CRC AAEAE423
Copy CRC AAEAE423
Cannot be verified as accurate (confidence 37) [C8B518EE], AccurateRip returned [003CB199]
Copy OK

Track 5

Filename C:\EACRips\Slayer – 1988 – South Of Heaven\05 – Mandatory Suicide.wav

Peak level 96.4 %
Track quality 100.0 %
Test CRC 0392580C
Copy CRC 0392580C
Cannot be verified as accurate (confidence 38) [9F095313], AccurateRip returned [93F36EA3]
Copy OK

Track 6

Filename C:\EACRips\Slayer – 1988 – South Of Heaven\06 – Ghosts Of War.wav

Peak level 87.6 %
Track quality 100.0 %
Test CRC 62135723
Copy CRC 62135723
Cannot be verified as accurate (confidence 38) [070B8AF5], AccurateRip returned [82189D30]
Copy OK

Track 7

Filename C:\EACRips\Slayer – 1988 – South Of Heaven\07 – Read Between The Lies.wav

Peak level 97.6 %
Track quality 100.0 %
Test CRC AA6EC47C
Copy CRC AA6EC47C
Cannot be verified as accurate (confidence 37) [2CC2CEA8], AccurateRip returned [D9E5D0F2]
Copy OK

Track 8

Filename C:\EACRips\Slayer – 1988 – South Of Heaven\08 – Cleanse The Soul.wav

Peak level 83.2 %
Track quality 100.0 %
Test CRC FBC9CADE
Copy CRC FBC9CADE
Cannot be verified as accurate (confidence 37) [791C2C32], AccurateRip returned [DDBFF7D3]
Copy OK

Track 9

Filename C:\EACRips\Slayer – 1988 – South Of Heaven\09 – Dissident Aggressor.wav

Peak level 85.2 %
Track quality 100.0 %
Test CRC 8702A8D0
Copy CRC 8702A8D0
Cannot be verified as accurate (confidence 38) [0E39E151], AccurateRip returned [A8103C71]
Copy OK

Track 10

Filename C:\EACRips\Slayer – 1988 – South Of Heaven\10 – Spill The Blood.wav

Peak level 99.9 %
Track quality 100.0 %
Test CRC 53419F85
Copy CRC 53419F85
Cannot be verified as accurate (confidence 38) [E6E7BB00], AccurateRip returned [5EFEDA47]
Copy OK

No tracks could be verified as accurate
You may have a different pressing from the one(s) in the database

No errors occurred

End of status report

REM GENRE “Thrash Metal”
REM DATE 1988
REM DISCID 7E08A70A
REM COMMENT “ExactAudioCopy v0.99pb4”
FILE “01 – South Of Heaven.wav” WAVE
TRACK 01 AUDIO
INDEX 01 00:00:00
FILE “02 – Silent Scream.wav” WAVE
TRACK 02 AUDIO
INDEX 01 00:00:00
FILE “03 – Live Undead.wav” WAVE
TRACK 03 AUDIO
INDEX 01 00:00:00
FILE “04 – Behind The Crooked Cross.wav” WAVE
TRACK 04 AUDIO
INDEX 01 00:00:00
FILE “05 – Mandatory Suicide.wav” WAVE
TRACK 05 AUDIO
INDEX 01 00:00:00
FILE “06 – Ghosts Of War.wav” WAVE
TRACK 06 AUDIO
INDEX 01 00:00:00
FILE “07 – Read Between The Lies.wav” WAVE
TRACK 07 AUDIO
INDEX 01 00:00:00
FILE “08 – Cleanse The Soul.wav” WAVE
TRACK 08 AUDIO
INDEX 01 00:00:00
FILE “09 – Dissident Aggressor.wav” WAVE
TRACK 09 AUDIO
INDEX 01 00:00:00
FILE “10 – Spill The Blood.wav” WAVE
TRACK 10 AUDIO
INDEX 01 00:00:00

0

Publication author

offline 7 days

Chaos

3
Comments: 4Publics: 3565Registration: 02-02-2019
Spread the Download

Leave a Reply

Your email address will not be published. Required fields are marked *

Enter the text from the image below
 

This site uses Akismet to reduce spam. Learn how your comment data is processed.