Slayer – Show No Mercy




No Cover available

Artist: Slayer
Year: 1984
Genre: Metal
Notes: Discogs
Add. Notes:
Watch Songs on: YouTube
Cover incl.: Yes
Encoder: FLAC
Bitrate: ~900 kBit/s (44.1 kHz/16 Bit/s)
Log & Cue incl.: Yes/Yes
Size: 258,7 MB
Password: “slam” (without ” “)


All Downloads/Hosters are compatible

Download 1
KatFile.com
Turbobit.net
Rapidgator.net
FileFactory.com
Download 2
KatFile.com
Turbobit.net
Rapidgator.net
FileFactory.com

Tracklist:

1 - Evil Has No Boundaries  
2 - The Antichrist  
3 - Die By The Sword  
4 - Fight Till Death  
5 - Metalstorm / Face The Slayer  
6 - Aggressive Perfector
7 - Black Magic  
8- Tormentor  
9 - The Final Command  
10 - Crionics  
11 - Show No Mercy

EAC-Log, CUE-Sheed & NFO:

Click to open spoiler
Exact Audio Copy V0.99 prebeta 5 from 4. May 2009

EAC extraction logfile from 8. June 2009, 13:07

Slayer / Show No Mercy

Used drive : PIONEER DVD-RW DVR-111L Adapter: 0 ID: 0

Read mode : Secure
Utilize accurate stream : Yes
Defeat audio cache : Yes
Make use of C2 pointers : No

Read offset correction : 48
Overread into Lead-In and Lead-Out : No
Fill up missing offset samples with silence : Yes
Delete leading and trailing silent blocks : No
Null samples used in CRC calculations : Yes
Used interface : Native Win32 interface for Win NT & 2000
Gap handling : Appended to previous track

Used output format : User Defined Encoder
Selected bitrate : 768 kBit/s
Quality : High
Add ID3 tag : No
Command line compressor : C:\Program Files\Multimedia\Exact Audio Copy\FLAC\FLAC.EXE
Additional command line options : -8 -V -T “ARTIST=%a” -T “TITLE=%t” -T “ALBUM=%g” -T “DATE=%y” -T “TRACKNUMBER=%n” -T “GENRE=%m” -T “COMMENT=EAC FLAC -8” %s

TOC of the extracted CD

Track | Start | Length | Start sector | End sector
———————————————————
1 | 0:00.00 | 3:10.47 | 0 | 14296
2 | 3:10.47 | 2:50.53 | 14297 | 27099
3 | 6:01.25 | 3:37.12 | 27100 | 43386
4 | 9:38.37 | 3:39.40 | 43387 | 59851
5 | 13:18.02 | 4:55.23 | 59852 | 81999
6 | 18:13.25 | 3:30.50 | 82000 | 97799
7 | 21:44.00 | 4:07.17 | 97800 | 116341
8 | 25:51.17 | 3:45.60 | 116342 | 133276
9 | 29:37.02 | 2:33.13 | 133277 | 144764
10 | 32:10.15 | 3:30.20 | 144765 | 160534
11 | 35:40.35 | 3:07.55 | 160535 | 174614

Track 1

Filename F:\My Docs Max\Slayer – (1984) Show No Mercy\01 – Evil Has No Boundaries.wav

Pre-gap length 0:00:02.00

Peak level 93.5 %
Track quality 100.0 %
Test CRC 4573F025
Copy CRC 4573F025
Accurately ripped (confidence 4) [62A2CE30]
Copy OK

Track 2

Filename F:\My Docs Max\Slayer – (1984) Show No Mercy\02 – The Antichrist.wav

Pre-gap length 0:00:01.06

Peak level 92.1 %
Track quality 100.0 %
Test CRC 18C86171
Copy CRC 18C86171
Accurately ripped (confidence 4) [DDE7009D]
Copy OK

Track 3

Filename F:\My Docs Max\Slayer – (1984) Show No Mercy\03 – Die By The Sword.wav

Pre-gap length 0:00:01.02

Peak level 88.9 %
Track quality 99.9 %
Test CRC 3E87E07E
Copy CRC 3E87E07E
Accurately ripped (confidence 4) [D87568CD]
Copy OK

Track 4

Filename F:\My Docs Max\Slayer – (1984) Show No Mercy\04 – Fight Till Death.wav

Pre-gap length 0:00:00.61

Peak level 93.8 %
Track quality 100.0 %
Test CRC 173E7786
Copy CRC 173E7786
Accurately ripped (confidence 4) [0A750803]
Copy OK

Track 5

Filename F:\My Docs Max\Slayer – (1984) Show No Mercy\05 – Metal Storm , Face The Slayer.wav

Pre-gap length 0:00:01.21

Peak level 94.1 %
Track quality 100.0 %
Test CRC 0DDE4318
Copy CRC 0DDE4318
Accurately ripped (confidence 4) [63B966F0]
Copy OK

Track 6

Filename F:\My Docs Max\Slayer – (1984) Show No Mercy\06 – Aggressive Perfector.wav

Pre-gap length 0:00:01.01

Peak level 91.3 %
Track quality 100.0 %
Test CRC E79C399A
Copy CRC E79C399A
Accurately ripped (confidence 4) [A326CDC8]
Copy OK

Track 7

Filename F:\My Docs Max\Slayer – (1984) Show No Mercy\07 – Black magic.wav

Pre-gap length 0:00:00.58

Peak level 90.9 %
Track quality 100.0 %
Test CRC 25068361
Copy CRC 25068361
Accurately ripped (confidence 4) [881ECC66]
Copy OK

Track 8

Filename F:\My Docs Max\Slayer – (1984) Show No Mercy\08 – Tormentor.wav

Pre-gap length 0:00:00.63

Peak level 98.2 %
Track quality 99.9 %
Test CRC 3833296C
Copy CRC 3833296C
Accurately ripped (confidence 4) [796DFA73]
Copy OK

Track 9

Filename F:\My Docs Max\Slayer – (1984) Show No Mercy\09 – The Final Command.wav

Pre-gap length 0:00:01.17

Peak level 95.3 %
Track quality 100.0 %
Test CRC 8E822FF7
Copy CRC 8E822FF7
Accurately ripped (confidence 4) [A6BB60D5]
Copy OK

Track 10

Filename F:\My Docs Max\Slayer – (1984) Show No Mercy\10 – Crionics.wav

Pre-gap length 0:00:01.43

Peak level 97.3 %
Track quality 100.0 %
Test CRC 7E4DD22E
Copy CRC 7E4DD22E
Accurately ripped (confidence 4) [B86DBB89]
Copy OK

Track 11

Filename F:\My Docs Max\Slayer – (1984) Show No Mercy\11 – Show No Mercy.wav

Pre-gap length 0:00:01.13

Peak level 86.1 %
Track quality 100.0 %
Test CRC 5002A24D
Copy CRC 5002A24D
Accurately ripped (confidence 4) [40BDEBB8]
Copy OK

All tracks accurately ripped

No errors occurred

End of status report
REM GENRE Metal
REM DATE 1984
REM DISCID 8609180B
REM COMMENT “ExactAudioCopy v0.99pb5”
PERFORMER “Slayer”
TITLE “Show No Mercy”
FILE “Slayer – (1984) Show No Mercy\01 – Evil Has No Boundaries.wav” WAVE
TRACK 01 AUDIO
TITLE “Evil Has No Boundaries”
PERFORMER “Slayer”
INDEX 01 00:00:00
TRACK 02 AUDIO
TITLE “The Antichrist”
PERFORMER “Slayer”
INDEX 00 03:09:41
FILE “Slayer – (1984) Show No Mercy\02 – The Antichrist.wav” WAVE
INDEX 01 00:00:00
TRACK 03 AUDIO
TITLE “Die By The Sword”
PERFORMER “Slayer”
INDEX 00 02:49:51
FILE “Slayer – (1984) Show No Mercy\03 – Die By The Sword.wav” WAVE
INDEX 01 00:00:00
TRACK 04 AUDIO
TITLE “Fight Till Death”
PERFORMER “Slayer”
INDEX 00 03:36:26
FILE “Slayer – (1984) Show No Mercy\04 – Fight Till Death.wav” WAVE
INDEX 01 00:00:00
TRACK 05 AUDIO
TITLE “Metal Storm / Face The Slayer”
PERFORMER “Slayer”
INDEX 00 03:38:19
FILE “Slayer – (1984) Show No Mercy\05 – Metal Storm , Face The Slayer.wav” WAVE
INDEX 01 00:00:00
TRACK 06 AUDIO
TITLE “Aggressive Perfector”
PERFORMER “Slayer”
INDEX 00 04:54:22
FILE “Slayer – (1984) Show No Mercy\06 – Aggressive Perfector.wav” WAVE
INDEX 01 00:00:00
TRACK 07 AUDIO
TITLE “Black magic”
PERFORMER “Slayer”
INDEX 00 03:29:67
FILE “Slayer – (1984) Show No Mercy\07 – Black magic.wav” WAVE
INDEX 01 00:00:00
TRACK 08 AUDIO
TITLE “Tormentor”
PERFORMER “Slayer”
INDEX 00 04:06:29
FILE “Slayer – (1984) Show No Mercy\08 – Tormentor.wav” WAVE
INDEX 01 00:00:00
TRACK 09 AUDIO
TITLE “The Final Command”
PERFORMER “Slayer”
INDEX 00 03:44:43
FILE “Slayer – (1984) Show No Mercy\09 – The Final Command.wav” WAVE
INDEX 01 00:00:00
TRACK 10 AUDIO
TITLE “Crionics”
PERFORMER “Slayer”
INDEX 00 02:31:45
FILE “Slayer – (1984) Show No Mercy\10 – Crionics.wav” WAVE
INDEX 01 00:00:00
TRACK 11 AUDIO
TITLE “Show No Mercy”
PERFORMER “Slayer”
INDEX 00 03:29:07
FILE “Slayer – (1984) Show No Mercy\11 – Show No Mercy.wav” WAVE
INDEX 01 00:00:00


Leave a Reply

Your email address will not be published. Required fields are marked *

Enter the text from the image below
 

This site uses Akismet to reduce spam. Learn how your comment data is processed.