Slayer – Seasons in the Abyss




Artist: Slayer
Year: 1990
Genre: Metal
Notes: Discogs
Add. Notes:
Encoder: FLAC
Bitrate: ~1000 kBit/s (44.1 kHz/16 Bit/s)
Size: 294,27 MB
Password: “slam” (without ” “)


Crypted via FileCrypt.cc:

.

Crypted via Relink.to:

Tracklist:

1 - War Ensemble - 4:52
2 - Blood Red - 2:50
3 - Spirit In Black - 4:07
4 - Expendable Youth - 4:10
5 - Dead Skin Mask - 5:17
6 - Hallowed Point - 3:24
7 - Skeletons Of Society - 4:41
8 - Temptation - 3:26
9 - Born Of Fire - 3:08
10 - Seasons In The Abyss - 6:32

EAC-Log, CUE-Sheed & NFO:

Click to open spoiler
EAC extraction logfile from 26. May 2007, 0:15 for CD
Slayer / Seasons In The Abyss

Used drive : PLEXTOR DVDR PX-708A Adapter: 0 ID: 0
Read mode : Secure with NO C2, accurate stream, disable cache
Read offset correction : 30
Overread into Lead-In and Lead-Out : Yes

Used output format : C:\Program Files\codec\flac.exe (User Defined Encoder)
128 kBit/s
Additional command line options : -8 -V -T “ARTIST=%a” -T “TITLE=%t” -T “ALBUM=%g” -T “DATE=%y” -T “TRACKNUMBER=%n” -T “GENRE=%m” -T “DISCID=%f” -T “COMMENT=EAC v0.95b3 Flac 1.1.4 -8” %s

Other options :
Fill up missing offset samples with silence : Yes
Delete leading and trailing silent blocks : No
Installed external ASPI interface

Track 1
Filename D:\MUSIC\seeds\Slayer – Seasons In The Abyss (1990) [FLAC]\01 – War Ensemble.wav

Pre-gap length 0:00:02.00

Peak level 92.6 %
Track quality 100.0 %
Test CRC 22A6C458
Copy CRC 22A6C458
Copy OK

Track 2
Filename D:\MUSIC\seeds\Slayer – Seasons In The Abyss (1990) [FLAC]\02 – Blood Red.wav

Peak level 100.0 %
Track quality 100.0 %
Test CRC BDCE6B5E
Copy CRC BDCE6B5E
Copy OK

Track 3
Filename D:\MUSIC\seeds\Slayer – Seasons In The Abyss (1990) [FLAC]\03 – Spirit In Black.wav

Peak level 99.3 %
Track quality 100.0 %
Test CRC E8639176
Copy CRC E8639176
Copy OK

Track 4
Filename D:\MUSIC\seeds\Slayer – Seasons In The Abyss (1990) [FLAC]\04 – Expendable Youth.wav

Peak level 97.7 %
Track quality 100.0 %
Test CRC 50FD6007
Copy CRC 50FD6007
Copy OK

Track 5
Filename D:\MUSIC\seeds\Slayer – Seasons In The Abyss (1990) [FLAC]\05 – Dead Skin Mask.wav

Peak level 100.0 %
Track quality 100.0 %
Test CRC A487C58C
Copy CRC A487C58C
Copy OK

Track 6
Filename D:\MUSIC\seeds\Slayer – Seasons In The Abyss (1990) [FLAC]\06 – Hallowed Point.wav

Peak level 94.6 %
Track quality 100.0 %
Test CRC 424F7CD1
Copy CRC 424F7CD1
Copy OK

Track 7
Filename D:\MUSIC\seeds\Slayer – Seasons In The Abyss (1990) [FLAC]\07 – Skeletons Of Society.wav

Peak level 100.0 %
Track quality 100.0 %
Test CRC C5A27A97
Copy CRC C5A27A97
Copy OK

Track 8
Filename D:\MUSIC\seeds\Slayer – Seasons In The Abyss (1990) [FLAC]\08 – Temptation.wav

Peak level 97.7 %
Track quality 100.0 %
Test CRC 2BBD9155
Copy CRC 2BBD9155
Copy OK

Track 9
Filename D:\MUSIC\seeds\Slayer – Seasons In The Abyss (1990) [FLAC]\09 – Born Of Fire.wav

Peak level 97.7 %
Track quality 99.9 %
Test CRC 854030E9
Copy CRC 854030E9
Copy OK

Track 10
Filename D:\MUSIC\seeds\Slayer – Seasons In The Abyss (1990) [FLAC]\10 – Seasons In The Abyss.wav

Peak level 97.6 %
Track quality 100.0 %
Test CRC B53A88D4
Copy CRC B53A88D4
Copy OK

No errors occured

End of status report

REM GENRE “Thrash Metal”
REM DATE 1990
REM DISCID 8909F80A
REM COMMENT “ExactAudioCopy v0.95b3”
PERFORMER “Slayer”
TITLE “Seasons in the Abyss”
FILE “01 – War Ensemble.wav” WAVE
TRACK 01 AUDIO
TITLE “War Ensemble”
PERFORMER “Slayer”
INDEX 01 00:00:00
FILE “02 – Blood Red.wav” WAVE
TRACK 02 AUDIO
TITLE “Blood Red”
PERFORMER “Slayer”
INDEX 01 00:00:00
FILE “03 – Spirit in Black.wav” WAVE
TRACK 03 AUDIO
TITLE “Spirit in Black”
PERFORMER “Slayer”
INDEX 01 00:00:00
FILE “04 – Expendable Youth.wav” WAVE
TRACK 04 AUDIO
TITLE “Expendable Youth”
PERFORMER “Slayer”
INDEX 01 00:00:00
FILE “05 – Dead Skin Mask.wav” WAVE
TRACK 05 AUDIO
TITLE “Dead Skin Mask”
PERFORMER “Slayer”
INDEX 01 00:00:00
FILE “06 – Hallowed Point.wav” WAVE
TRACK 06 AUDIO
TITLE “Hallowed Point”
PERFORMER “Slayer”
INDEX 01 00:00:00
FILE “07 – Skeletons of Society.wav” WAVE
TRACK 07 AUDIO
TITLE “Skeletons of Society”
PERFORMER “Slayer”
INDEX 01 00:00:00
FILE “08 – Temptation.wav” WAVE
TRACK 08 AUDIO
TITLE “Temptation”
PERFORMER “Slayer”
INDEX 01 00:00:00
FILE “09 – Born of Fire.wav” WAVE
TRACK 09 AUDIO
TITLE “Born of Fire”
PERFORMER “Slayer”
INDEX 01 00:00:00
FILE “10 – Seasons in the Abyss.wav” WAVE
TRACK 10 AUDIO
TITLE “Seasons in the Abyss”
PERFORMER “Slayer”
INDEX 01 00:00:00

Leave a Reply

Your email address will not be published. Required fields are marked *

This site uses Akismet to reduce spam. Learn how your comment data is processed.