Slayer – God Hates Us All




Artist: Slayer
Year: 2001
Genre: Rock
Notes: Discogs
Add. Notes:
Encoder: FLAC
Bitrate: ~1100 kBit/s (44.1 kHz/16 Bit/s)
Size: 312,26 MB
Password: “slam” (without ” “)


http://www.share-online.biz/dl/HC0OJCPP42X
http://www.share-online.biz/dl/XYSNJCPPBTJ
https://rapidgator.net/file/15348bbafc4a961fbc318deac20de5f1/Sla-GodHat.part1.rar
https://rapidgator.net/file/a7ce30a602120dfcc619cbc8d7cf0e43/Sla-GodHat.part2.rar

Onlinestatus: Turbobit.net Rapidgator.net

Tracklist:

1 - Darkness Of Christ - 1:30
2 - Disciple - 3:37
3 - God Send Death - 3:46
4 - New Faith - 3:05
5 - Cast Down - 3:28
6 - Threshold - 2:28
7 - Exile - 3:57
8 - Seven Faces - 3:42
9 - Bloodline - 3:36
10 - Deviance - 3:09
11 - War Zone - 2:46
12 - Here Comes The Pain - 4:31
13 - Payback - 3:05

EAC-Log, CUE-Sheed & NFO:

Click to open spoiler
Exact Audio Copy V0.99 prebeta 4 from 23. January 2008

EAC extraction logfile from 15. May 2009, 6:43

Slayer / God Hates Us All

Used drive : BENQ DVD DD DW1640 Adapter: 1 ID: 0

Read mode : Secure
Utilize accurate stream : Yes
Defeat audio cache : Yes
Make use of C2 pointers : No

Read offset correction : 618
Overread into Lead-In and Lead-Out : No
Fill up missing offset samples with silence : Yes
Delete leading and trailing silent blocks : No
Null samples used in CRC calculations : Yes
Used interface : Native Win32 interface for Win NT & 2000
Gap handling : Appended to previous track

Used output format : User Defined Encoder
Selected bitrate : 128 kBit/s
Quality : High
Add ID3 tag : No
Command line compressor : E:\Program Files\Exact Audio Copy\Flac\flac.exe
Additional command line options : -V -8 -T “artist=%a” -T “title=%t” -T “album=%g” -T “date=%y” -T “tracknumber=%n” -T “genre=%m” %s

TOC of the extracted CD

Track | Start | Length | Start sector | End sector
———————————————————
1 | 0:00.00 | 1:30.40 | 0 | 6789
2 | 1:30.40 | 3:35.50 | 6790 | 22964
3 | 5:06.15 | 3:45.67 | 22965 | 39906
4 | 8:52.07 | 3:05.57 | 39907 | 53838
5 | 11:57.64 | 3:26.43 | 53839 | 69331
6 | 15:24.32 | 2:29.20 | 69332 | 80526
7 | 17:53.52 | 3:55.33 | 80527 | 98184
8 | 21:49.10 | 3:41.62 | 98185 | 114821
9 | 25:30.72 | 3:36.73 | 114822 | 131094
10 | 29:07.70 | 3:08.67 | 131095 | 145261
11 | 32:16.62 | 2:45.28 | 145262 | 157664
12 | 35:02.15 | 4:32.12 | 157665 | 178076
13 | 39:34.27 | 3:03.03 | 178077 | 191804

Track 1

Filename D:\Music and Audio Files\Lossless Audio\FLAC\01 – Slayer – Darkness Of Christ.wav

Pre-gap length 0:00:02.00

Peak level 94.4 %
Track quality 100.0 %
Test CRC 96C79521
Copy CRC 96C79521
Accurately ripped (confidence 7) [86CD18DF]
Copy OK

Track 2

Filename D:\Music and Audio Files\Lossless Audio\FLAC\02 – Slayer – Disciple.wav

Peak level 98.8 %
Track quality 100.0 %
Test CRC 620F3D11
Copy CRC 620F3D11
Accurately ripped (confidence 7) [7EF573CD]
Copy OK

Track 3

Filename D:\Music and Audio Files\Lossless Audio\FLAC\03 – Slayer – God Send Death.wav

Peak level 100.0 %
Track quality 100.0 %
Test CRC E8D38F36
Copy CRC E8D38F36
Accurately ripped (confidence 7) [F59F822C]
Copy OK

Track 4

Filename D:\Music and Audio Files\Lossless Audio\FLAC\04 – Slayer – New Faith.wav

Peak level 97.1 %
Track quality 100.0 %
Test CRC 1EFBA8BA
Copy CRC 1EFBA8BA
Accurately ripped (confidence 7) [79DAB5FA]
Copy OK

Track 5

Filename D:\Music and Audio Files\Lossless Audio\FLAC\05 – Slayer – Cast Down.wav

Peak level 98.8 %
Track quality 100.0 %
Test CRC 303B1E44
Copy CRC 303B1E44
Accurately ripped (confidence 7) [76299D06]
Copy OK

Track 6

Filename D:\Music and Audio Files\Lossless Audio\FLAC\06 – Slayer – Threshold.wav

Peak level 99.0 %
Track quality 100.0 %
Test CRC A1A053A2
Copy CRC A1A053A2
Accurately ripped (confidence 7) [55FCDA62]
Copy OK

Track 7

Filename D:\Music and Audio Files\Lossless Audio\FLAC\07 – Slayer – Exile.wav

Peak level 100.0 %
Track quality 99.9 %
Test CRC B2826C21
Copy CRC B2826C21
Accurately ripped (confidence 7) [9A32D32E]
Copy OK

Track 8

Filename D:\Music and Audio Files\Lossless Audio\FLAC\08 – Slayer – Seven Faces.wav

Peak level 98.8 %
Track quality 99.9 %
Test CRC 3ABDDF73
Copy CRC 3ABDDF73
Accurately ripped (confidence 7) [B18BCE1C]
Copy OK

Track 9

Filename D:\Music and Audio Files\Lossless Audio\FLAC\09 – Slayer – Bloodline.wav

Peak level 98.8 %
Track quality 100.0 %
Test CRC D0A44ADF
Copy CRC D0A44ADF
Accurately ripped (confidence 7) [802DD543]
Copy OK

Track 10

Filename D:\Music and Audio Files\Lossless Audio\FLAC\10 – Slayer – Deviance.wav

Peak level 98.8 %
Track quality 100.0 %
Test CRC D79FCC06
Copy CRC D79FCC06
Accurately ripped (confidence 7) [481C16A9]
Copy OK

Track 11

Filename D:\Music and Audio Files\Lossless Audio\FLAC\11 – Slayer – War Zone.wav

Peak level 96.6 %
Track quality 99.9 %
Test CRC FDFE8FA5
Copy CRC FDFE8FA5
Accurately ripped (confidence 7) [6EBABE87]
Copy OK

Track 12

Filename D:\Music and Audio Files\Lossless Audio\FLAC\12 – Slayer – Here Comes The Pain.wav

Peak level 100.0 %
Track quality 100.0 %
Test CRC E7057E39
Copy CRC E7057E39
Accurately ripped (confidence 7) [AEC33831]
Copy OK

Track 13

Filename D:\Music and Audio Files\Lossless Audio\FLAC\13 – Slayer – Payback.wav

Peak level 100.0 %
Track quality 100.0 %
Test CRC 09972FCC
Copy CRC 09972FCC
Accurately ripped (confidence 7) [8B5D883B]
Copy OK

All tracks accurately ripped

No errors occurred

End of status report

REM GENRE “Thrash Metal”
REM DATE 2001
REM DISCID A709FD0D
REM COMMENT “ExactAudioCopy v0.99pb4”
FILE “01 – Slayer – Darkness Of Christ.wav” WAVE
TRACK 01 AUDIO
INDEX 01 00:00:00
FILE “02 – Slayer – Disciple.wav” WAVE
TRACK 02 AUDIO
FLAGS DCP
INDEX 01 00:00:00
FILE “03 – Slayer – God Send Death.wav” WAVE
TRACK 03 AUDIO
FLAGS DCP
INDEX 01 00:00:00
FILE “04 – Slayer – New Faith.wav” WAVE
TRACK 04 AUDIO
FLAGS DCP
INDEX 01 00:00:00
FILE “05 – Slayer – Cast Down.wav” WAVE
TRACK 05 AUDIO
FLAGS DCP
INDEX 01 00:00:00
FILE “06 – Slayer – Threshold.wav” WAVE
TRACK 06 AUDIO
FLAGS DCP
INDEX 01 00:00:00
FILE “07 – Slayer – Exile.wav” WAVE
TRACK 07 AUDIO
FLAGS DCP
INDEX 01 00:00:00
FILE “08 – Slayer – Seven Faces.wav” WAVE
TRACK 08 AUDIO
FLAGS DCP
INDEX 01 00:00:00
FILE “09 – Slayer – Bloodline.wav” WAVE
TRACK 09 AUDIO
FLAGS DCP
INDEX 01 00:00:00
FILE “10 – Slayer – Deviance.wav” WAVE
TRACK 10 AUDIO
FLAGS DCP
INDEX 01 00:00:00
FILE “11 – Slayer – War Zone.wav” WAVE
TRACK 11 AUDIO
FLAGS DCP
INDEX 01 00:00:00
FILE “12 – Slayer – Here Comes The Pain.wav” WAVE
TRACK 12 AUDIO
FLAGS DCP
INDEX 01 00:00:00
FILE “13 – Slayer – Payback.wav” WAVE
TRACK 13 AUDIO
FLAGS DCP
INDEX 01 00:00:00

Leave a Reply

Your email address will not be published. Required fields are marked *

This site uses Akismet to reduce spam. Learn how your comment data is processed.