Slade – Live At The BBC




Artist: Slade
Year: 2009
Genre: Rock
Notes: Discogs
Add. Notes:
Cover incl.: Yes
Encoder: APE
Bitrate: ~800 kBit/s (44.1 kHz/16 Bit/s)
Log & Cue incl.: Yes
Size: 653 MB
Password: “slam” (without ” “)


All Downloads/Hosters are compatible

Download 1
KatFile.com
Turbobit.net
FileFactory.com
Rapidgator.net
Download 2
KatFile.com
Turbobit.net
FileFactory.com
Rapidgator.net

Tracklist:

2009 Live At The BBC 

CD1
01 Coming Home
02 The Shape Of Things To Come
03 See Us Here, See Us There
04 Know Who You Are
05 My Life Is Natural
06 Coloured Rain
07 Man Who Speaks Evil
08 Move Over
09 Omaha
10 Sweet Box
11 Nights In White Satin
12 It's Alright Ma, It's Only 
Witchcraft
13 The Raven
14 Bye Goodbye
15 Getting Better
16 Darling Be Home Soon
17 Let The Good Times Roll
18 Dirty Joker
19 Get Down And Get With It
20 Wild Winds Are Blowing
21 Radio 1, Where The Best Music's 
On
22 Everyday The Sounds We Play On 
Radio 1
23 This Is Radio 1, We're All Having 
Fun
24 We're Slade!

CD2
01 Intro
02 Hear Me Calling
03 In Like A Shot (From My Gun)
04 Look Wot You Dun
05 Keep On Rocking
06 Move Over Baby
07 Mama Weer All Crazee Now
08 Lady Be Good
09 Coz I Luv You
10 Take Me Back 'Ome
11 Get Down And Get With It
12 Good Golly Miss Molly

EAC-Log, CUE-Sheed & NFO:

Click to open spoiler
Exact Audio Copy V0.99 prebeta 5 from 4. May 2009

EAC extraction logfile from 15. October 2009, 21:43

Slade / SLADE – “LIVE AT THE BBC” (SALVODCD211) 1of2

Used drive : DVDRW DRW-6S160P Adapter: 1 ID: 0

Read mode : Secure
Utilize accurate stream : Yes
Defeat audio cache : Yes
Make use of C2 pointers : Yes

Read offset correction : 6
Overread into Lead-In and Lead-Out : No
Fill up missing offset samples with silence : Yes
Delete leading and trailing silent blocks : No
Null samples used in CRC calculations : Yes
Used interface : Native Win32 interface for Win NT & 2000

Used output format : Monkey’s Audio Lossless Encoder
Selected bitrate : High Lossless Compression
Quality : High
Add ID3 tag : No
Command line compressor : C:\Program Files\Monkey’s Audio\MAC.exe
Additional command line options : -v

TOC of the extracted CD

Track | Start | Length | Start sector | End sector
———————————————————
1 | 0:00.00 | 3:12.35 | 0 | 14434
2 | 3:12.35 | 2:29.66 | 14435 | 25675
3 | 5:42.26 | 3:09.42 | 25676 | 39892
4 | 8:51.68 | 3:00.72 | 39893 | 53464
5 | 11:52.65 | 3:01.47 | 53465 | 67086
6 | 14:54.37 | 2:51.05 | 67087 | 79916
7 | 17:45.42 | 3:27.00 | 79917 | 95441
8 | 21:12.42 | 3:43.04 | 95442 | 112170
9 | 24:55.46 | 2:20.59 | 112171 | 122729
10 | 27:16.30 | 3:01.71 | 122730 | 136375
11 | 30:18.26 | 3:11.25 | 136376 | 150725
12 | 33:29.51 | 2:44.22 | 150726 | 163047
13 | 36:13.73 | 2:41.15 | 163048 | 175137
14 | 38:55.13 | 3:31.04 | 175138 | 190966
15 | 42:26.17 | 2:28.37 | 190967 | 202103
16 | 44:54.54 | 5:04.25 | 202104 | 224928
17 | 49:59.04 | 3:11.65 | 224929 | 239318
18 | 53:10.69 | 2:52.53 | 239319 | 252271
19 | 56:03.47 | 4:00.23 | 252272 | 270294
20 | 60:03.70 | 2:29.26 | 270295 | 281495
21 | 62:33.21 | 0:27.08 | 281496 | 283528
22 | 63:00.29 | 0:30.68 | 283529 | 285846
23 | 63:31.22 | 0:34.07 | 285847 | 288403
24 | 64:05.29 | 0:21.51 | 288404 | 290029

Range status and errors

Selected range

Filename C:\Documents and Settings\Desktop\Slade – SLADE – LIVE AT THE BBC (SALVODCD211) 1of2.wav

Peak level 97.7 %
Range quality 100.0 %
Copy CRC 41E23812
Copy OK

No errors occurred

AccurateRip summary

Track 1 not present in database
Track 2 not present in database
Track 3 not present in database
Track 4 not present in database
Track 5 not present in database
Track 6 not present in database
Track 7 not present in database
Track 8 not present in database
Track 9 not present in database
Track 10 not present in database
Track 11 not present in database
Track 12 not present in database
Track 13 not present in database
Track 14 not present in database
Track 15 not present in database
Track 16 not present in database
Track 17 not present in database
Track 18 not present in database
Track 19 not present in database
Track 20 not present in database
Track 21 not present in database
Track 22 not present in database
Track 23 not present in database
Track 24 not present in database

None of the tracks are present in the AccurateRip database

End of status report

Exact Audio Copy V0.99 prebeta 5 from 4. May 2009

EAC extraction logfile from 15. October 2009, 22:14

Slade / SLADE – “LIVE AT THE PARIS THEATRE LONDON, 17th AUGUST 1972” (SALVODCD211) 2of2

Used drive : DVDRW DRW-6S160P Adapter: 1 ID: 0

Read mode : Secure
Utilize accurate stream : Yes
Defeat audio cache : Yes
Make use of C2 pointers : Yes

Read offset correction : 6
Overread into Lead-In and Lead-Out : No
Fill up missing offset samples with silence : Yes
Delete leading and trailing silent blocks : No
Null samples used in CRC calculations : Yes
Used interface : Native Win32 interface for Win NT & 2000

Used output format : Monkey’s Audio Lossless Encoder
Selected bitrate : High Lossless Compression
Quality : High
Add ID3 tag : No
Command line compressor : C:\Program Files\Monkey’s Audio\MAC.exe
Additional command line options : -v

TOC of the extracted CD

Track | Start | Length | Start sector | End sector
———————————————————
1 | 0:00.00 | 0:41.57 | 0 | 3131
2 | 0:41.57 | 5:39.62 | 3132 | 28618
3 | 6:21.44 | 3:46.04 | 28619 | 45572
4 | 10:07.48 | 3:38.16 | 45573 | 61938
5 | 13:45.64 | 3:44.64 | 61939 | 78802
6 | 17:30.53 | 5:19.26 | 78803 | 102753
7 | 22:50.04 | 3:58.57 | 102754 | 120660
8 | 26:48.61 | 1:28.03 | 120661 | 127263
9 | 28:16.64 | 5:09.50 | 127264 | 150488
10 | 33:26.39 | 4:50.64 | 150489 | 172302
11 | 38:17.28 | 6:51.59 | 172303 | 203186
12 | 45:09.12 | 4:00.53 | 203187 | 221239

Range status and errors

Selected range

Filename C:\Documents and Settings\OKSANA\Desktop\Slade – SLADE – LIVE AT THE PARIS THEATRE LONDON, 17th AUGUST 1972 (SALVODCD211) 2of2.wav

Peak level 97.7 %
Range quality 99.9 %
Copy CRC C43F3D1C
Copy OK

No errors occurred

AccurateRip summary

Track 1 not present in database
Track 2 not present in database
Track 3 not present in database
Track 4 not present in database
Track 5 not present in database
Track 6 not present in database
Track 7 not present in database
Track 8 not present in database
Track 9 not present in database
Track 10 not present in database
Track 11 not present in database
Track 12 not present in database

None of the tracks are present in the AccurateRip database

End of status report

REM GENRE “Hard Rock”
REM DATE 2009
REM DISCID 630F1B18
REM COMMENT “ExactAudioCopy v0.99pb5”
PERFORMER “Slade”
TITLE “SLADE – ‘LIVE AT THE BBC’ (SALVODCD211) 1of2”
FILE “Slade – SLADE – LIVE AT THE BBC (SALVODCD211) 1of2.ape” WAVE
TRACK 01 AUDIO
TITLE ” / Coming Home”
PERFORMER “Slade”
INDEX 01 00:00:00
TRACK 02 AUDIO
TITLE ” / The Shape Of Things To Come”
PERFORMER “Slade”
INDEX 01 03:12:35
TRACK 03 AUDIO
TITLE ” / See Us Here, See Us There”
PERFORMER “Slade”
INDEX 01 05:42:26
TRACK 04 AUDIO
TITLE ” / Know Who You Are”
PERFORMER “Slade”
INDEX 01 08:51:68
TRACK 05 AUDIO
TITLE ” / My Life Is Natural”
PERFORMER “Slade”
INDEX 01 11:52:65
TRACK 06 AUDIO
TITLE ” / Coloured Rain”
PERFORMER “Slade”
INDEX 01 14:54:37
TRACK 07 AUDIO
TITLE ” / Man Who Speaks Evil”
PERFORMER “Slade”
INDEX 01 17:45:42
TRACK 08 AUDIO
TITLE ” / Move Over”
PERFORMER “Slade”
INDEX 01 21:12:42
TRACK 09 AUDIO
TITLE ” / Omaha”
PERFORMER “Slade”
INDEX 01 24:55:46
TRACK 10 AUDIO
TITLE ” / Sweet Box”
PERFORMER “Slade”
INDEX 01 27:16:30
TRACK 11 AUDIO
TITLE ” / Nights In White Satin”
PERFORMER “Slade”
INDEX 01 30:18:26
TRACK 12 AUDIO
TITLE ” / It’s Alright Ma, It’s Only Witchcraft”
PERFORMER “Slade”
INDEX 01 33:29:51
TRACK 13 AUDIO
TITLE ” / The Raven”
PERFORMER “Slade”
INDEX 01 36:13:73
TRACK 14 AUDIO
TITLE ” / Bye Goodbye”
PERFORMER “Slade”
INDEX 01 38:55:13
TRACK 15 AUDIO
TITLE ” / Getting Better”
PERFORMER “Slade”
INDEX 01 42:26:17
TRACK 16 AUDIO
TITLE ” / Darling Be Home Soon”
PERFORMER “Slade”
INDEX 01 44:54:54
TRACK 17 AUDIO
TITLE ” / Let The Good Times Roll”
PERFORMER “Slade”
INDEX 01 49:59:04
TRACK 18 AUDIO
TITLE ” / Dirty Joker”
PERFORMER “Slade”
INDEX 01 53:10:69
TRACK 19 AUDIO
TITLE ” / Get Down And Get With It”
PERFORMER “Slade”
INDEX 01 56:03:47
TRACK 20 AUDIO
TITLE ” / Wild Winds Are Blowing”
PERFORMER “Slade”
INDEX 01 60:03:70
TRACK 21 AUDIO
TITLE ” / Radio 1, Where The Best Music’s On”
PERFORMER “Slade”
INDEX 01 62:33:21
TRACK 22 AUDIO
TITLE ” / Everyday The Sounds We Play On Radio 1″
PERFORMER “Slade”
INDEX 01 63:00:29
TRACK 23 AUDIO
TITLE ” / This Is Radio 1, We’re All Having Fun”
PERFORMER “Slade”
INDEX 01 63:31:22
TRACK 24 AUDIO
TITLE ” / We’re Slade!”
PERFORMER “Slade”
INDEX 01 64:05:29

REM GENRE “Hard Rock”
REM DATE 2009
REM DISCID 970B850C
REM COMMENT “ExactAudioCopy v0.99pb5”
PERFORMER “Slade”
TITLE “SLADE – ‘LIVE AT THE PARIS THEATRE LONDON, 17th AUGUST 1972’ (SALVODCD211) 2of2”
FILE “Slade – SLADE – LIVE AT THE PARIS THEATRE LONDON, 17th AUGUST 1972 (SALVODCD211) 2of2.ape” WAVE
TRACK 01 AUDIO
TITLE ” / Intro”
PERFORMER “Slade”
INDEX 01 00:00:00
TRACK 02 AUDIO
TITLE ” / Hear Me Calling”
PERFORMER “Slade”
INDEX 01 00:41:57
TRACK 03 AUDIO
TITLE ” / In Like A Shot (From My Gun)”
PERFORMER “Slade”
INDEX 01 06:21:44
TRACK 04 AUDIO
TITLE ” / Look Wot You Dun”
PERFORMER “Slade”
INDEX 01 10:07:48
TRACK 05 AUDIO
TITLE ” / Keep On Rocking”
PERFORMER “Slade”
INDEX 01 13:45:64
TRACK 06 AUDIO
TITLE ” / Move Over Baby”
PERFORMER “Slade”
INDEX 01 17:30:53
TRACK 07 AUDIO
TITLE ” / Mama Weer All Crazee Now”
PERFORMER “Slade”
INDEX 01 22:50:04
TRACK 08 AUDIO
TITLE ” / Lady Be Good”
PERFORMER “Slade”
INDEX 01 26:48:61
TRACK 09 AUDIO
TITLE ” / Coz I Luv You”
PERFORMER “Slade”
INDEX 01 28:16:64
TRACK 10 AUDIO
TITLE ” / Take Me Back ‘Ome”
PERFORMER “Slade”
INDEX 01 33:26:39
TRACK 11 AUDIO
TITLE ” / Get Down And Get With It”
PERFORMER “Slade”
INDEX 01 38:17:28
TRACK 12 AUDIO
TITLE ” / Good Golly Miss Molly”
PERFORMER “Slade”
INDEX 01 45:09:12


Leave a Reply

Your email address will not be published. Required fields are marked *

This site uses Akismet to reduce spam. Learn how your comment data is processed.