Skillet – Unleashed




Artist: Skillet
Year: 2016
Genre: Rock
Notes: Discogs
Add. Notes:
Cover incl.: Yes
Encoder: FLAC
Bitrate: ~1100 kBit/s (44.1 kHz/16 Bit/s)
Log & Cue incl.: Yes
Size: 340,04 MB
Password: “slam” (without ” “)


All Downloads/Hosters are compatible

Download 1
Turbobit.net
Rapidgator.net
KatFile.com
UsersDrive.com
CloudShare.to
Download 2
Turbobit.net
Rapidgator.net
KatFile.com
UsersDrive.com
CloudShare.to
Download 3
Turbobit.net
Rapidgator.net
KatFile.com
UsersDrive.com
CloudShare.to

Tracklist:

1 - Feel Invincible - 03:50
2 - Back From The Dead - 03:34
3 - Stars - 03:46
4 - I Want To Live - 03:29
5 - Undefeated - 03:36
6 - Famous - 03:19
7 - Lions - 03:25
8 - Out Of Hell - 03:34
9 - Burn It Down - 03:17
10 - Watching For Comets - 03:30
11 - Saviors Of The World - 03:46
12 - The Resistance - 03:52

EAC-Log, CUE-Sheed & NFO:

Click to open spoiler
Exact Audio Copy V1.1 from 23. June 2015

EAC extraction logfile from 10. August 2016, 19:02

Skillet / Unleashed

Used drive : PIONEER DVD-RW DVR-219L Adapter: 1 ID: 2

Read mode : Secure
Utilize accurate stream : Yes
Defeat audio cache : Yes
Make use of C2 pointers : No

Read offset correction : 6
Overread into Lead-In and Lead-Out : No
Fill up missing offset samples with silence : Yes
Delete leading and trailing silent blocks : No
Null samples used in CRC calculations : Yes
Used interface : Native Win32 interface for Win NT & 2000

Used output format : Internal WAV Routines
Sample format : 44.100 Hz; 16 Bit; Stereo

TOC of the extracted CD

Track | Start | Length | Start sector | End sector
———————————————————
1 | 0:00.00 | 3:49.70 | 0 | 17244
2 | 3:49.70 | 3:33.44 | 17245 | 33263
3 | 7:23.39 | 3:45.64 | 33264 | 50202
4 | 11:09.28 | 3:28.62 | 50203 | 65864
5 | 14:38.15 | 3:35.66 | 65865 | 82055
6 | 18:14.06 | 3:18.30 | 82056 | 96935
7 | 21:32.36 | 3:24.45 | 96936 | 112280
8 | 24:57.06 | 3:34.13 | 112281 | 128343
9 | 28:31.19 | 3:16.34 | 128344 | 143077
10 | 31:47.53 | 3:29.21 | 143078 | 158773
11 | 35:16.74 | 3:46.05 | 158774 | 175728
12 | 39:03.04 | 3:52.05 | 175729 | 193133

Range status and errors

Selected range

Filename D:\EAC Rip\ALEXXX & Co\Skillet – Unleashed.wav

Peak level 100.0 %
Extraction speed 3.0 X
Range quality 100.0 %
Test CRC F1FE13CB
Copy CRC F1FE13CB
Copy OK

No errors occurred

End of status report

—- CUETools DB Plugin V2.1.6

[CTDB TOCID: R1aaKponiwZdNa3cVH1iJ315.xA-] found
Submit result: R1aaKponiwZdNa3cVH1iJ315.xA- has been confirmed
Track | CTDB Status
1 | (16/16) Accurately ripped
2 | (16/16) Accurately ripped
3 | (16/16) Accurately ripped
4 | (16/16) Accurately ripped
5 | (16/16) Accurately ripped
6 | (16/16) Accurately ripped
7 | (16/16) Accurately ripped
8 | (16/16) Accurately ripped
9 | (16/16) Accurately ripped
10 | (16/16) Accurately ripped
11 | (16/16) Accurately ripped
12 | (16/16) Accurately ripped

==== Log checksum 810CA1126FBFA4E8B9286D2EEEE7E9199DFC5BDDAD4126CCBC5B4E7BD252F13C ====

REM GENRE Rock
REM DATE 2016
REM DISCID A30A0F0C
REM COMMENT “ExactAudioCopy v1.1”
PERFORMER “Skillet”
TITLE “Unleashed”
FILE “Skillet – Unleashed.wav” WAVE
TRACK 01 AUDIO
TITLE “Feel Invincible”
PERFORMER “Skillet”
INDEX 01 00:00:00
TRACK 02 AUDIO
TITLE “Back From The Dead”
PERFORMER “Skillet”
INDEX 01 03:49:70
TRACK 03 AUDIO
TITLE “Stars”
PERFORMER “Skillet”
INDEX 01 07:23:39
TRACK 04 AUDIO
TITLE “I Want To Live”
PERFORMER “Skillet”
INDEX 01 11:09:28
TRACK 05 AUDIO
TITLE “Undefeated”
PERFORMER “Skillet”
INDEX 01 14:38:15
TRACK 06 AUDIO
TITLE “Famous”
PERFORMER “Skillet”
INDEX 01 18:14:06
TRACK 07 AUDIO
TITLE “Lions”
PERFORMER “Skillet”
INDEX 01 21:32:36
TRACK 08 AUDIO
TITLE “Out Of Hell”
PERFORMER “Skillet”
INDEX 01 24:57:06
TRACK 09 AUDIO
TITLE “Burn It Down”
PERFORMER “Skillet”
INDEX 01 28:31:19
TRACK 10 AUDIO
TITLE “Watching For Comets”
PERFORMER “Skillet”
INDEX 01 31:47:53
TRACK 11 AUDIO
TITLE “Saviors Of The World”
PERFORMER “Skillet”
INDEX 01 35:16:74
TRACK 12 AUDIO
TITLE “The Resistance”
PERFORMER “Skillet”
INDEX 01 39:03:04

Leave a Reply

Your email address will not be published. Required fields are marked *

This site uses Akismet to reduce spam. Learn how your comment data is processed.