Ska-P – Ska-P




Artist: Ska-P
Year: 1994
Genre: Ska
Notes: Discogs
Add. Notes:
Cover incl.: Yes
Encoder: FLAC
Bitrate: ~900 kBit/s (44.1 kHz/16 Bit/s)
Log & Cue incl.: Yes
Size: 209,2 MB
Password: “slam” (without ” “)


All Downloads/Hosters are compatible

Download 1
Turbobit.net
Rapidgator.net
KatFile.com
UploadRar.com
Download 2
Turbobit.net
Rapidgator.net
KatFile.com
UploadRar.com
Download 3
Turbobit.net
Rapidgator.net
KatFile.com
UploadRar.com

Tracklist:

1 - El Hombre Resaka Baila Ska - 3:02
2 - Abolición - 3:12
3 - Chupones - 3:04
4 - 0,7 - 3:33
5 - Alí, El Magrebí - 3:34
6 - Sargento Bolilla - 3:10
7 - Reality Show - 3:35
8 - Bla, Bla, Bla... - 3:08
9 - Como Un Rayo - 2:35

EAC-Log, CUE-Sheed & NFO:

Click to open spoiler
Exact Audio Copy V0.99 prebeta 4 from 23. January 2008

Отчёт EAC об извлечении, выполненном 23. мая 2009, 11:01

Ska-P / Ska-P

Дисковод: PLEXTOR DVDR PX-716A Adapter: 2 ID: 1

Режим чтения : Достоверность
Использование точного потока : Да
Отключение кэша аудио : Да
Использование указателей C2 : Нет

Коррекция смещения при чтении : 30
Способность читать области Lead-in и Lead-out : Нет
Заполнение пропущенных сэмплов тишиной : Да
Удаление блоков с тишиной в начале и конце : Нет
При вычислениях CRC использовались нулевые сэмплы : Да
Интерфейс : Встроенный Win32-интерфейс для Win NT/2000

Выходной формат : Пользовательский кодировщик
Выбранный битрейт : 1024 kBit/s
Качество : Высокий
Добавление ID3-тэга : Нет
Утилита сжатия : F:\Program Files\Exact Audio Copy\Flac\flac.exe
Дополнительные параметры : -8 -V -T “ARTIST=%a” -T “TITLE=%t” -T “ALBUM=%g” -T “DATE=%y” -T “TRACKNUMBER=%n” -T “GENRE=%m” -T “COMMENT=EAC FLAC -8” %s

TOC извлечённого CD

Трек | Старт | Длительность | Начальный сектор | Конечный сектор
———————————————————————
1 | 0:00.37 | 3:04.00 | 37 | 13836
2 | 3:04.37 | 3:17.00 | 13837 | 28611
3 | 6:21.37 | 3:11.00 | 28612 | 42936
4 | 9:32.37 | 3:40.00 | 42937 | 59436
5 | 13:12.37 | 3:43.00 | 59437 | 76161
6 | 16:55.37 | 3:18.00 | 76162 | 91011
7 | 20:13.37 | 3:42.00 | 91012 | 107661
8 | 23:55.37 | 3:14.00 | 107662 | 122211
9 | 27:09.37 | 2:35.00 | 122212 | 133836

Характеристики диапазона извлечения и сообщения об ошибках

Выбранный диапазон

Имя файла E:\Torentz\SKA-P\1994_SKA-P\Ska-P – Ska-P.wav

Пиковый уровень 97.7 %
Качество диапазона 100.0 %
CRC теста D648006F
CRC копии D648006F
Копирование… OK

Ошибок не произошло

AccurateRip: сводка

Трек 1 нет в базе данных
Трек 2 нет в базе данных
Трек 3 нет в базе данных
Трек 4 нет в базе данных
Трек 5 нет в базе данных
Трек 6 нет в базе данных
Трек 7 нет в базе данных
Трек 8 нет в базе данных
Трек 9 нет в базе данных

Ни одного трека нет в базе AccurateRip

Конец отчёта

REM GENRE Ska
REM DATE 1995
REM DISCID 6F06F809
REM COMMENT “ExactAudioCopy v0.99pb4”
PERFORMER “Ska-P”
TITLE “Ska-P”
FILE “Ska-P – Ska-P.flac” WAVE
TRACK 01 AUDIO
TITLE “El Hombre Resaka Baila Ska”
PERFORMER “Ska-P”
INDEX 00 00:00:00
INDEX 01 00:00:37
TRACK 02 AUDIO
TITLE “Abolicion”
PERFORMER “Ska-P”
INDEX 01 03:04:37
TRACK 03 AUDIO
TITLE “Chupones”
PERFORMER “Ska-P”
INDEX 01 06:21:37
TRACK 04 AUDIO
TITLE “0,7”
PERFORMER “Ska-P”
INDEX 01 09:32:37
TRACK 05 AUDIO
TITLE “Ali, El Magrebi”
PERFORMER “Ska-P”
INDEX 01 13:12:37
TRACK 06 AUDIO
TITLE “Sargento Bolilla”
PERFORMER “Ska-P”
INDEX 01 16:55:37
TRACK 07 AUDIO
TITLE “Reality Show”
PERFORMER “Ska-P”
INDEX 01 20:13:37
TRACK 08 AUDIO
TITLE “Bla, Bla, Bla…”
PERFORMER “Ska-P”
INDEX 01 23:55:37
TRACK 09 AUDIO
TITLE “Como Un Rayo”
PERFORMER “Ska-P”
INDEX 01 27:09:37


Leave a Reply

Your email address will not be published. Required fields are marked *

This site uses Akismet to reduce spam. Learn how your comment data is processed.