Ska-P – Que corra la voz




Artist: Ska-P
Year: 2002
Genre: Ska
Notes: Discogs
Add. Notes:
Cover incl.: Yes
Encoder: FLAC
Bitrate: ~1100 kBit/s (44.1 kHz/16 Bit/s)
Log & Cue incl.: Yes
Size: 364,81 MB
Password: “slam” (without ” “)


All Downloads/Hosters are compatible

Download 1
Turbobit.net
Rapidgator.net
KatFile.com
UploadRar.com
Download 2
Turbobit.net
Rapidgator.net
KatFile.com
UploadRar.com

Tracklist:

1. La estampida           3:23
2. Consumo gusto          3:58
3. Welcome to hell        4:11
4. Kasposos               4:59
5. El niño soldado        3:41
6. Intifada               3:35
7. McDollar               3:58
8. Solamente por pensar   3:22
9. Insensibilidad         4:36
10. Esquirol               3:38  
11. El olvidado            3:29
12. Mis colegas            4:11

EAC-Log, CUE-Sheed & NFO:

Click to open spoiler
Exact Audio Copy V0.99 prebeta 4 from 23. January 2008

????? EAC ?? ??????????, ??????????? 23. ??? 2009, 12:19

Ska-P / Que Corra La Voz

????????: PLEXTOR DVDR PX-716A Adapter: 2 ID: 1

????? ?????? : ?????????????
????????????? ??????? ?????? : ??
?????????? ???? ????? : ??
????????????? ?????????? C2 : ???

????????? ???????? ??? ?????? : 30
??????????? ?????? ??????? Lead-in ? Lead-out : ???
?????????? ??????????? ??????? ??????? : ??
???????? ?????? ? ??????? ? ?????? ? ????? : ???
??? ??????????? CRC ?????????????? ??????? ?????? : ??
????????? : ?????????? Win32-????????? ??? Win NT/2000

???????? ?????? : ???????????????? ??????????
????????? ??????? : 1024 kBit/s
???????? : ???????
?????????? ID3-???? : ???
??????? ?????? : F:\Program Files\Exact Audio Copy\Flac\flac.exe
?????????????? ????????? : -8 -V -T “ARTIST=%a” -T “TITLE=%t” -T “ALBUM=%g” -T “DATE=%y” -T “TRACKNUMBER=%n” -T “GENRE=%m” -T “COMMENT=EAC FLAC -8” %s

TOC ???????????? CD

???? | ????? | ???????????? | ????????? ?????? | ???????? ??????
———————————————————————
1 | 0:00.00 | 3:23.03 | 0 | 15227
2 | 3:23.03 | 3:58.32 | 15228 | 33109
3 | 7:21.35 | 4:11.72 | 33110 | 52006
4 | 11:33.32 | 4:59.11 | 52007 | 74442
5 | 16:32.43 | 3:41.15 | 74443 | 91032
6 | 20:13.58 | 3:35.01 | 91033 | 107158
7 | 23:48.59 | 3:58.51 | 107159 | 125059
8 | 27:47.35 | 3:22.59 | 125060 | 140268
9 | 31:10.19 | 4:36.41 | 140269 | 161009
10 | 35:46.60 | 3:38.62 | 161010 | 177421
11 | 39:25.47 | 3:29.21 | 177422 | 193117
12 | 42:54.68 | 4:11.33 | 193118 | 211975

?????????????? ????????? ?????????? ? ????????? ?? ???????

????????? ????????

??? ????? E:\Torentz\SKA-P\2002_Que corra la voz\Ska-P – Que Corra La Voz.wav

??????? ??????? 100.0 %
???????? ????????? 100.0 %
CRC ????? B646D595
CRC ????? B646D595
???????????… OK

?????? ?? ?????????

AccurateRip: ??????

???? 1 ???????? ?? ?????????? (????????????? 5) [5344779E], AccurateRip ?????? [01886FFE]
???? 2 ???????? ?? ?????????? (????????????? 5) [589BB2D7], AccurateRip ?????? [9663B5A6]
???? 3 ???????? ?? ?????????? (????????????? 5) [FCC43B53], AccurateRip ?????? [F924903E]
???? 4 ???????? ?? ?????????? (????????????? 5) [7BEDBCA0], AccurateRip ?????? [0C19FBCA]
???? 5 ???????? ?? ?????????? (????????????? 5) [79DCCE0A], AccurateRip ?????? [32AF4E9F]
???? 6 ???????? ?? ?????????? (????????????? 5) [C97EA291], AccurateRip ?????? [40380B98]
???? 7 ???????? ?? ?????????? (????????????? 5) [835950F8], AccurateRip ?????? [051949DA]
???? 8 ???????? ?? ?????????? (????????????? 5) [8E23B920], AccurateRip ?????? [315C4E22]
???? 9 ???????? ?? ?????????? (????????????? 5) [5AF63CEE], AccurateRip ?????? [519A2BD1]
???? 10 ???????? ?? ?????????? (????????????? 5) [7642864D], AccurateRip ?????? [E33E9EA9]
???? 11 ???????? ?? ?????????? (????????????? 5) [E514439C], AccurateRip ?????? [C9B39626]
???? 12 ???????? ?? ?????????? (????????????? 5) [A65924AE], AccurateRip ?????? [5E4F1BFC]

?? ???? ???? ?? ?????? ???????? ?? ????????
? ????? ???? ????? ???? ???? ??????? ????????? ?????

????? ??????

REM GENRE Ska
REM DATE 2002
REM DISCID AC0B0A0C
REM COMMENT “ExactAudioCopy v0.99pb4”
PERFORMER “Ska-P”
TITLE “Que Corra La Voz”
FILE “Ska-P – Que Corra La Voz.flac” WAVE
TRACK 01 AUDIO
TITLE “Estampida”
PERFORMER “Ska-P”
INDEX 01 00:00:00
TRACK 02 AUDIO
TITLE “Consumo Gusto”
PERFORMER “Ska-P”
INDEX 01 03:23:03
TRACK 03 AUDIO
TITLE “Welcome To Hell”
PERFORMER “Ska-P”
INDEX 01 07:21:35
TRACK 04 AUDIO
TITLE “Casposos”
PERFORMER “Ska-P”
INDEX 00 11:32:67
INDEX 01 11:33:32
TRACK 05 AUDIO
TITLE “Niño Soldado”
PERFORMER “Ska-P”
INDEX 00 16:31:43
INDEX 01 16:32:43
TRACK 06 AUDIO
TITLE “Intifada”
PERFORMER “Ska-P”
INDEX 00 20:12:58
INDEX 01 20:13:58
TRACK 07 AUDIO
TITLE “McDólar”
PERFORMER “Ska-P”
INDEX 00 23:47:59
INDEX 01 23:48:59
TRACK 08 AUDIO
TITLE “Solamente Por Pensar”
PERFORMER “Ska-P”
INDEX 01 27:47:35
TRACK 09 AUDIO
TITLE “Insensibilidad”
PERFORMER “Ska-P”
INDEX 01 31:10:19
TRACK 10 AUDIO
TITLE “Esquirol”
PERFORMER “Ska-P”
INDEX 00 35:44:60
INDEX 01 35:46:60
TRACK 11 AUDIO
TITLE “El Olvidado”
PERFORMER “Ska-P”
INDEX 00 39:24:47
INDEX 01 39:25:47
TRACK 12 AUDIO
TITLE “Mis Colegas”
PERFORMER “Ska-P”
INDEX 01 42:54:68


Leave a Reply

Your email address will not be published. Required fields are marked *

This site uses Akismet to reduce spam. Learn how your comment data is processed.