SKA-P – Planeta Eskoria




Artist: SKA-P
Year: 2000
Genre: Ska
Notes: Discogs
Add. Notes:
Cover incl.: Yes
Encoder: FLAC
Bitrate: ~1000 kBit/s (44.1 kHz/16 Bit/s)
Log & Cue incl.: Yes
Size: 544,79 MB
Password: “slam” (without ” “)


All Downloads/Hosters are compatible

Download 1
Turbobit.net
Rapidgator.net
KatFile.com
UploadRar.com
Download 2
Turbobit.net
Rapidgator.net
KatFile.com
UploadRar.com

Tracklist:

1 - Planeta Eskoria - 4:19
2 - Vergüenza - 3:51
3 - Como Me Pongo - 2:44
4 - El Auténtico - 3:40
5 - Naval Xixón - 3:33
6 - La Mosca Cojonera - 3:56
7 - Eres Un@ Más - 4:16
8 - Derecho De Admisión - 5:30
9 - A La Mierda - 3:53
10 - E.T.T.s - 4:07
11 - Lucrecia - 4:28
12 - Tío Sam - 4:21
13 - Violencia Machista - 4:11
14 - Mestizaje - 4:30
Pista CD-ROM
1 - Cannabis (Directo) (Video) - 4:11
2 - Paramilitar (Video) - 8:16

EAC-Log, CUE-Sheed & NFO:

Click to open spoiler
Exact Audio Copy V0.99 prebeta 4 from 23. January 2008

Отчёт EAC об извлечении, выполненном 23. мая 2009, 11:32

Ska-P / Planeta Eskoria

Дисковод: PLEXTOR DVDR PX-716A Adapter: 2 ID: 1

Режим чтения : Достоверность
Использование точного потока : Да
Отключение кэша аудио : Да
Использование указателей C2 : Нет

Коррекция смещения при чтении : 30
Способность читать области Lead-in и Lead-out : Нет
Заполнение пропущенных сэмплов тишиной : Да
Удаление блоков с тишиной в начале и конце : Нет
При вычислениях CRC использовались нулевые сэмплы : Да
Интерфейс : Встроенный Win32-интерфейс для Win NT/2000

Выходной формат : Пользовательский кодировщик
Выбранный битрейт : 1024 kBit/s
Качество : Высокий
Добавление ID3-тэга : Нет
Утилита сжатия : F:\Program Files\Exact Audio Copy\Flac\flac.exe
Дополнительные параметры : -8 -V -T “ARTIST=%a” -T “TITLE=%t” -T “ALBUM=%g” -T “DATE=%y” -T “TRACKNUMBER=%n” -T “GENRE=%m” -T “COMMENT=EAC FLAC -8” %s

TOC извлечённого CD

Трек | Старт | Длительность | Начальный сектор | Конечный сектор
———————————————————————
1 | 0:00.00 | 4:19.48 | 0 | 19472
2 | 4:19.48 | 3:51.07 | 19473 | 36804
3 | 8:10.55 | 2:44.72 | 36805 | 49176
4 | 10:55.52 | 3:40.41 | 49177 | 65717
5 | 14:36.18 | 3:33.38 | 65718 | 81730
6 | 18:09.56 | 3:56.73 | 81731 | 99503
7 | 22:06.54 | 4:16.31 | 99504 | 118734
8 | 26:23.10 | 5:30.69 | 118735 | 143553
9 | 31:54.04 | 3:53.40 | 143554 | 161068
10 | 35:47.44 | 4:07.46 | 161069 | 179639
11 | 39:55.15 | 4:28.44 | 179640 | 199783
12 | 44:23.59 | 4:21.13 | 199784 | 219371
13 | 48:44.72 | 4:11.20 | 219372 | 238216
14 | 52:56.17 | 4:30.70 | 238217 | 258536
15 | 59:59.12 | 14:50.43 | 269937 | 336729

Характеристики диапазона извлечения и сообщения об ошибках

Выбранный диапазон

Имя файла E:\Torentz\SKA-P\2000_Planeta Eskoria\Ska-P – Planeta Eskoria.wav

Пиковый уровень 96.6 %
Качество диапазона 99.9 %
CRC теста A7CF9A01
CRC копии A7CF9A01
Копирование… OK

Ошибок не произошло

AccurateRip: сводка

Трек 1 точное извлечение (доверие 4) [755061F3]
Трек 2 точное извлечение (доверие 4) [11F92EF7]
Трек 3 точное извлечение (доверие 4) [45DFA062]
Трек 4 точное извлечение (доверие 4) [F86A85F0]
Трек 5 точное извлечение (доверие 4) [6A388149]
Трек 6 точное извлечение (доверие 4) [B014E199]
Трек 7 точное извлечение (доверие 4) [9DD03B0C]
Трек 8 точное извлечение (доверие 4) [33C65C7F]
Трек 9 точное извлечение (доверие 4) [D97B008E]
Трек 10 точное извлечение (доверие 4) [4DF1BAC6]
Трек 11 точное извлечение (доверие 4) [CDE76F7C]
Трек 12 точное извлечение (доверие 4) [3AFB3FCF]
Трек 13 точное извлечение (доверие 4) [2FC13A3C]
Трек 14 точное извлечение (доверие 4) [4DB33002]

Все треки извлечены точно

Конец отчёта

REM GENRE Ska
REM DATE 2000
REM DISCID E811890F
REM COMMENT “ExactAudioCopy v0.99pb4”
PERFORMER “Ska-P”
TITLE “Planeta Eskoria”
FILE “Ska-P – Planeta Eskoria.flac” WAVE
TRACK 01 AUDIO
TITLE “Planeta Eskoria”
PERFORMER “Ska-P”
INDEX 01 00:00:00
TRACK 02 AUDIO
TITLE “Verguenza”
PERFORMER “Ska-P”
INDEX 01 04:19:48
TRACK 03 AUDIO
TITLE “Como Me Pongo”
PERFORMER “Ska-P”
INDEX 01 08:10:55
TRACK 04 AUDIO
TITLE “El Autentico”
PERFORMER “Ska-P”
INDEX 01 10:55:52
TRACK 05 AUDIO
TITLE “Naval Xixon”
PERFORMER “Ska-P”
INDEX 01 14:36:18
TRACK 06 AUDIO
TITLE “La Mosca Cojonera”
PERFORMER “Ska-P”
INDEX 01 18:09:56
TRACK 07 AUDIO
TITLE “Eres Un@ Mas”
PERFORMER “Ska-P”
INDEX 01 22:06:54
TRACK 08 AUDIO
TITLE “Derecho De Admision”
PERFORMER “Ska-P”
INDEX 01 26:23:10
TRACK 09 AUDIO
TITLE “A La Mierda”
PERFORMER “Ska-P”
INDEX 01 31:54:04
TRACK 10 AUDIO
TITLE “E.T.T.s”
PERFORMER “Ska-P”
INDEX 01 35:47:44
TRACK 11 AUDIO
TITLE “Lucrecia”
PERFORMER “Ska-P”
INDEX 01 39:55:15
TRACK 12 AUDIO
TITLE “Tio Sam”
PERFORMER “Ska-P”
INDEX 01 44:23:59
TRACK 13 AUDIO
TITLE “Violencia Machista”
PERFORMER “Ska-P”
INDEX 01 48:44:72
TRACK 14 AUDIO
TITLE “Mestizaje”
PERFORMER “Ska-P”
INDEX 01 52:56:17


Leave a Reply

Your email address will not be published. Required fields are marked *

This site uses Akismet to reduce spam. Learn how your comment data is processed.