Ska-P – Eurosis




Artist: Ska-P
Year: 1998
Genre: Ska
Notes: Discogs
Add. Notes:
Cover incl.: Yes
Encoder: FLAC
Bitrate: ~1000 kBit/s (44.1 kHz/16 Bit/s)
Log & Cue incl.: Yes
Size: 349,65 MB
Password: “slam” (without ” “)


All Downloads/Hosters are compatible

Download 1
Turbobit.net
Rapidgator.net
KatFile.com
UploadRar.com
Download 2
Turbobit.net
Rapidgator.net
KatFile.com
UploadRar.com
Download 3
Turbobit.net
Rapidgator.net
KatFile.com
UploadRar.com

Tracklist:

1 - Circo Ibérico - 3:43
2 - Villancico - 4:08
3 - España Va Bien - 4:52
4 - Paramilitar - 3:56
5 - Simpático Holgazán - 4:04
6 - Kémalo - 3:05
7 - Poder Pa'l Pueblo - 3:19
8 - Juan Sin Tierra - 2:57
9 - Kacikes - 3:18
10 - América Latina ¡¡Libre!! - 5:07
11 - Al Turrón - 3:48
12 - Seguimos En Pie - 5:52

EAC-Log, CUE-Sheed & NFO:

Click to open spoiler
Exact Audio Copy V0.99 prebeta 4 from 23. January 2008

????? EAC ?? ??????????, ??????????? 26. ??? 2009, 0:06

Ska-P / Eurosis

????????: PLEXTOR DVDR PX-716A Adapter: 2 ID: 1

????? ?????? : ?????????????
????????????? ??????? ?????? : ??
?????????? ???? ????? : ??
????????????? ?????????? C2 : ???

????????? ???????? ??? ?????? : 30
??????????? ?????? ??????? Lead-in ? Lead-out : ???
?????????? ??????????? ??????? ??????? : ??
???????? ?????? ? ??????? ? ?????? ? ????? : ???
??? ??????????? CRC ?????????????? ??????? ?????? : ??
????????? : ?????????? Win32-????????? ??? Win NT/2000

???????? ?????? : ???????????????? ??????????
????????? ??????? : 1024 kBit/s
???????? : ???????
?????????? ID3-???? : ???
??????? ?????? : F:\Program Files\Exact Audio Copy\Flac\flac.exe
?????????????? ????????? : -8 -V -T “ARTIST=%a” -T “TITLE=%t” -T “ALBUM=%g” -T “DATE=%y” -T “TRACKNUMBER=%n” -T “GENRE=%m” -T “COMMENT=EAC FLAC -8” %s

TOC ???????????? CD

???? | ????? | ???????????? | ????????? ?????? | ???????? ??????
———————————————————————
1 | 0:00.00 | 3:44.62 | 0 | 16861
2 | 3:44.62 | 4:09.45 | 16862 | 35581
3 | 7:54.32 | 4:53.45 | 35582 | 57601
4 | 12:48.02 | 3:56.60 | 57602 | 75361
5 | 16:44.62 | 4:05.15 | 75362 | 93751
6 | 20:50.02 | 3:06.35 | 93752 | 107736
7 | 23:56.37 | 3:20.25 | 107737 | 122761
8 | 27:16.62 | 2:58.13 | 122762 | 136124
9 | 30:15.00 | 3:18.60 | 136125 | 151034
10 | 33:33.60 | 5:07.65 | 151035 | 174124
11 | 38:41.50 | 3:50.10 | 174125 | 191384
12 | 42:31.60 | 5:54.12 | 191385 | 217946

?????????????? ????????? ?????????? ? ????????? ?? ???????

????????? ????????

??? ????? E:\Torentz\SKA-P\1998_Eurosis\Ska-P – Eurosis.wav

??????? ??????? 99.9 %
???????? ????????? 100.0 %
CRC ????? 88BEDB76
CRC ????? 88BEDB76
???????????… OK

?????? ?? ?????????

AccurateRip: ??????

???? 1 ?????? ?????????? (??????? 4) [D4A58FD7]
???? 2 ?????? ?????????? (??????? 4) [BC698408]
???? 3 ?????? ?????????? (??????? 4) [4D3855D7]
???? 4 ?????? ?????????? (??????? 4) [30AB239F]
???? 5 ?????? ?????????? (??????? 4) [5406492C]
???? 6 ?????? ?????????? (??????? 4) [A99B8582]
???? 7 ?????? ?????????? (??????? 4) [75F29BDD]
???? 8 ?????? ?????????? (??????? 4) [57845F4B]
???? 9 ?????? ?????????? (??????? 4) [C732A564]
???? 10 ?????? ?????????? (??????? 4) [453D98E9]
???? 11 ?????? ?????????? (??????? 4) [F376072A]
???? 12 ?????? ?????????? (??????? 4) [A38B0473]

??? ????? ????????? ?????

????? ??????

REM GENRE Ska
REM DATE 1998
REM DISCID 900B590C
REM COMMENT “ExactAudioCopy v0.99pb4”
PERFORMER “Ska-P”
TITLE “Eurosis”
FILE “Ska-P – Eurosis.flac” WAVE
TRACK 01 AUDIO
TITLE “Circo Ibérico”
PERFORMER “Ska-P”
INDEX 01 00:00:00
TRACK 02 AUDIO
TITLE “Villancico”
PERFORMER “Ska-P”
INDEX 01 03:44:62
TRACK 03 AUDIO
TITLE “España Va Bien”
PERFORMER “Ska-P”
INDEX 01 07:54:32
TRACK 04 AUDIO
TITLE “Paramilitar”
PERFORMER “Ska-P”
INDEX 01 12:48:02
TRACK 05 AUDIO
TITLE “Simpático Holgazán”
PERFORMER “Ska-P”
INDEX 01 16:44:62
TRACK 06 AUDIO
TITLE “Kémalo”
PERFORMER “Ska-P”
INDEX 01 20:50:02
TRACK 07 AUDIO
TITLE “Poder Pa’l Pueblo”
PERFORMER “Ska-P”
INDEX 01 23:56:37
TRACK 08 AUDIO
TITLE “Juan Sin Tierra”
PERFORMER “Ska-P”
INDEX 01 27:16:62
TRACK 09 AUDIO
TITLE “Kacikes”
PERFORMER “Ska-P”
INDEX 01 30:15:00
TRACK 10 AUDIO
TITLE “América Latina ¡¡Libre!!”
PERFORMER “Ska-P”
INDEX 01 33:33:60
TRACK 11 AUDIO
TITLE “Al Turrón”
PERFORMER “Ska-P”
INDEX 01 38:41:50
TRACK 12 AUDIO
TITLE “Seguimos En Pie”
PERFORMER “Ska-P”
INDEX 01 42:31:60


Leave a Reply

Your email address will not be published. Required fields are marked *

This site uses Akismet to reduce spam. Learn how your comment data is processed.