Ska-P – El Vals del Obrero




Artist: Ska-P
Year: 1996
Genre: Ska
Notes: Discogs
Add. Notes:
Cover incl.: Yes
Encoder: FLAC
Bitrate: ~1000 kBit/s (44.1 kHz/16 Bit/s)
Log & Cue incl.: Yes
Size: 334,96 MB
Password: “slam” (without ” “)


All Downloads/Hosters are compatible

Download 1
Turbobit.net
Rapidgator.net
UploadEver.com
KatFile.com
UsersDrive.com
Download 2
Turbobit.net
Rapidgator.net
UploadEver.com
KatFile.com
UsersDrive.com
Download 3
Turbobit.net
Rapidgator.net
UploadEver.com
KatFile.com
UsersDrive.com

Tracklist:

1 El Gato López 2:40
2 Ñapa Es 2:31
3 El Vals Del Obrero 4:38
4 Revistas Del Corazón 2:45
5 Romero El Madero 3:22
6 Sectas 4:07
7 No Te Pares 4:26
8 Cannabis 4:25
9 Insecto Urbano 4:12
10 Animales De Laboratorio 4:45
11 La Sesera No Va 3:06
12 Sexo Y Religión 3:33

EAC-Log, CUE-Sheed & NFO:

Click to open spoiler
Exact Audio Copy V0.99 prebeta 4 from 23. January 2008

????? EAC ?? ??????????, ??????????? 23. ??? 2009, 14:12

Ska-P / El Vals del Obrero

????????: PLEXTOR DVDR PX-716A Adapter: 2 ID: 1

????? ?????? : ?????????????
????????????? ??????? ?????? : ??
?????????? ???? ????? : ??
????????????? ?????????? C2 : ???

????????? ???????? ??? ?????? : 30
??????????? ?????? ??????? Lead-in ? Lead-out : ???
?????????? ??????????? ??????? ??????? : ??
???????? ?????? ? ??????? ? ?????? ? ????? : ???
??? ??????????? CRC ?????????????? ??????? ?????? : ??
????????? : ?????????? Win32-????????? ??? Win NT/2000

???????? ?????? : ???????????????? ??????????
????????? ??????? : 1024 kBit/s
???????? : ???????
?????????? ID3-???? : ???
??????? ?????? : F:\Program Files\Exact Audio Copy\Flac\flac.exe
?????????????? ????????? : -8 -V -T “ARTIST=%a” -T “TITLE=%t” -T “ALBUM=%g” -T “DATE=%y” -T “TRACKNUMBER=%n” -T “GENRE=%m” -T “COMMENT=EAC FLAC -8” %s

TOC ???????????? CD

???? | ????? | ???????????? | ????????? ?????? | ???????? ??????
———————————————————————
1 | 0:00.00 | 2:40.45 | 0 | 12044
2 | 2:40.45 | 2:31.50 | 12045 | 23419
3 | 5:12.20 | 4:38.70 | 23420 | 44339
4 | 9:51.15 | 2:45.20 | 44340 | 56734
5 | 12:36.35 | 3:22.10 | 56735 | 71894
6 | 15:58.45 | 4:07.50 | 71895 | 90469
7 | 20:06.20 | 4:26.40 | 90470 | 110459
8 | 24:32.60 | 4:25.30 | 110460 | 130364
9 | 28:58.15 | 4:12.15 | 130365 | 149279
10 | 33:10.30 | 4:45.45 | 149280 | 170699
11 | 37:56.00 | 3:06.70 | 170700 | 184719
12 | 41:02.70 | 3:33.00 | 184720 | 200694

?????????????? ????????? ?????????? ? ????????? ?? ???????

????????? ????????

??? ????? E:\Torentz\SKA-P\1996_El vals del obrero\Ska-P – El Vals del Obrero.wav

??????? ??????? 98.8 %
???????? ????????? 100.0 %
CRC ????? 4A8FF5E8
CRC ????? 4A8FF5E8
???????????… OK

?????? ?? ?????????

AccurateRip: ??????

???? 1 ??? ? ???? ??????
???? 2 ??? ? ???? ??????
???? 3 ??? ? ???? ??????
???? 4 ??? ? ???? ??????
???? 5 ??? ? ???? ??????
???? 6 ??? ? ???? ??????
???? 7 ??? ? ???? ??????
???? 8 ??? ? ???? ??????
???? 9 ??? ? ???? ??????
???? 10 ??? ? ???? ??????
???? 11 ??? ? ???? ??????
???? 12 ??? ? ???? ??????

?? ?????? ????? ??? ? ???? AccurateRip

????? ??????

REM GENRE Ska
REM DATE 1996
REM DISCID A60A730C
REM COMMENT “ExactAudioCopy v0.99pb4”
PERFORMER “Ska-P”
TITLE “El Vals del Obrero”
FILE “Ska-P – El Vals del Obrero.flac” WAVE
TRACK 01 AUDIO
TITLE “El gato Lopez”
PERFORMER “Ska-P”
INDEX 01 00:00:00
TRACK 02 AUDIO
TITLE “Napa es”
PERFORMER “Ska-P”
INDEX 01 02:40:45
TRACK 03 AUDIO
TITLE “El Vals del Obrero”
PERFORMER “Ska-P”
INDEX 01 05:12:20
TRACK 04 AUDIO
TITLE “Revistas del Corazón”
PERFORMER “Ska-P”
INDEX 01 09:51:15
TRACK 05 AUDIO
TITLE “Romero el Madero”
PERFORMER “Ska-P”
INDEX 01 12:36:35
TRACK 06 AUDIO
TITLE “Sectas”
PERFORMER “Ska-P”
INDEX 01 15:58:45
TRACK 07 AUDIO
TITLE “No te pares”
PERFORMER “Ska-P”
INDEX 01 20:06:20
TRACK 08 AUDIO
TITLE “Cannabis”
PERFORMER “Ska-P”
INDEX 01 24:32:60
TRACK 09 AUDIO
TITLE “Insecto Urbano”
PERFORMER “Ska-P”
INDEX 01 28:58:15
TRACK 10 AUDIO
TITLE “Animales de Laboratorio”
PERFORMER “Ska-P”
INDEX 01 33:10:30
TRACK 11 AUDIO
TITLE “La Sesera No Va”
PERFORMER “Ska-P”
INDEX 01 37:56:00
TRACK 12 AUDIO
TITLE “Sexo y Religión”
PERFORMER “Ska-P”
INDEX 01 41:02:70


Leave a Reply

Your email address will not be published. Required fields are marked *

This site uses Akismet to reduce spam. Learn how your comment data is processed.